SHARE
TWEET

Glass BluRay 720p

dirtyharrys Apr 9th, 2019 117 Never
Not a member of Pastebin yet? Sign Up, it unlocks many cool features!
  1. General
  2. Unique ID                   : 279262239458017986503027804724025928489 (0xD217F37034D59D0477E9BC75A560AB29)
  3. Complete name               : E:\QlJSR2xhc3M.mkv
  4. Format                      : Matroska
  5. Format version              : Version 4
  6. File size                   : 2.17 GiB
  7. Duration                    : 2 h 9 min
  8. Overall bit rate            : 2 407 kb/s
  9. Movie name                  : Glass BR-RIP / Glass BR-RIP
  10. Encoded date                : UTC 2019-04-05 07:25:02
  11. Writing application         : mkvmerge v30.1.0 ('Forever And More') 32-bit
  12. Writing library             : libebml v1.3.6 + libmatroska v1.4.9
  13. Copyright                   : Movies HDs 2019
  14. ARTIST                      : HarshLearner
  15.  
  16. Video
  17. ID                          : 1
  18. Format                      : AVC
  19. Format/Info                 : Advanced Video Codec
  20. Format profile              : High@L4.1
  21. Format settings             : CABAC / 4 Ref Frames
  22. Format settings, CABAC      : Yes
  23. Format settings, ReFrames   : 4 frames
  24. Codec ID                    : V_MPEG4/ISO/AVC
  25. Duration                    : 2 h 9 min
  26. Bit rate                    : 1 500 kb/s
  27. Width                       : 1 280 pixels
  28. Height                      : 536 pixels
  29. Display aspect ratio        : 2.40:1
  30. Frame rate mode             : Constant
  31. Frame rate                  : 23.976 (23976/1000) FPS
  32. Color space                 : YUV
  33. Chroma subsampling          : 4:2:0
  34. Bit depth                   : 8 bits
  35. Scan type                   : Progressive
  36. Bits/(Pixel*Frame)          : 0.091
  37. Stream size                 : 1.35 GiB (62%)
  38. Title                       : Glass
  39. Writing library             : x264 core 152 r2851M ba24899
  40. Default                     : Yes
  41. Forced                      : No
  42.  
  43. Audio #1
  44. ID                          : 2
  45. Format                      : AC-3
  46. Format/Info                 : Audio Coding 3
  47. Commercial name             : Dolby Digital
  48. Codec ID                    : A_AC3
  49. Duration                    : 2 h 9 min
  50. Bit rate mode               : Constant
  51. Bit rate                    : 448 kb/s
  52. Channel(s)                  : 6 channels
  53. Channel layout              : L R C LFE Ls Rs
  54. Sampling rate               : 48.0 kHz
  55. Frame rate                  : 31.250 FPS (1536 SPF)
  56. Bit depth                   : 16 bits
  57. Compression mode            : Lossy
  58. Stream size                 : 413 MiB (19%)
  59. Language                    : English
  60. Service kind                : Complete Main
  61. Default                     : No
  62. Forced                      : No
  63.  
  64. Audio #2
  65. ID                          : 3
  66. Format                      : AC-3
  67. Format/Info                 : Audio Coding 3
  68. Commercial name             : Dolby Digital
  69. Codec ID                    : A_AC3
  70. Duration                    : 2 h 9 min
  71. Bit rate mode               : Constant
  72. Bit rate                    : 448 kb/s
  73. Channel(s)                  : 6 channels
  74. Channel layout              : L R C LFE Ls Rs
  75. Sampling rate               : 48.0 kHz
  76. Frame rate                  : 31.250 FPS (1536 SPF)
  77. Bit depth                   : 16 bits
  78. Compression mode            : Lossy
  79. Stream size                 : 413 MiB (19%)
  80. Language                    : Spanish
  81. Service kind                : Complete Main
  82. Default                     : Yes
  83. Forced                      : Yes
  84.  
  85. Text #1
  86. ID                          : 4
  87. Format                      : PGS
  88. Muxing mode                 : zlib
  89. Codec ID                    : S_HDMV/PGS
  90. Codec ID/Info               : Picture based subtitle format used on BDs/HD-DVDs
  91. Duration                    : 2 h 8 min
  92. Bit rate                    : 26.9 kb/s
  93. Count of elements           : 2450
  94. Stream size                 : 24.7 MiB (1%)
  95. Language                    : Spanish
  96. Default                     : No
  97. Forced                      : No
  98.  
  99. Text #2
  100. ID                          : 5
  101. Format                      : PGS
  102. Muxing mode                 : zlib
  103. Codec ID                    : S_HDMV/PGS
  104. Codec ID/Info               : Picture based subtitle format used on BDs/HD-DVDs
  105. Duration                    : 2 h 4 min
  106. Bit rate                    : 1 620 b/s
  107. Count of elements           : 124
  108. Stream size                 : 1.45 MiB (0%)
  109. Language                    : Spanish
  110. Default                     : No
  111. Forced                      : No
  112.  
  113. Text #3
  114. ID                          : 6
  115. Format                      : UTF-8
  116. Codec ID                    : S_TEXT/UTF8
  117. Codec ID/Info               : UTF-8 Plain Text
  118. Duration                    : 2 h 1 min
  119. Bit rate                    : 43 b/s
  120. Count of elements           : 1197
  121. Stream size                 : 38.9 KiB (0%)
  122. Language                    : English
  123. Default                     : No
  124. Forced                      : No
  125.  
  126. Text #4
  127. ID                          : 7
  128. Format                      : UTF-8
  129. Codec ID                    : S_TEXT/UTF8
  130. Codec ID/Info               : UTF-8 Plain Text
  131. Duration                    : 2 h 2 min
  132. Bit rate                    : 50 b/s
  133. Count of elements           : 1561
  134. Stream size                 : 45.7 KiB (0%)
  135. Title                       : SDH
  136. Language                    : English
  137. Default                     : No
  138. Forced                      : No
  139.  
  140. Text #5
  141. ID                          : 8
  142. Format                      : UTF-8
  143. Codec ID                    : S_TEXT/UTF8
  144. Codec ID/Info               : UTF-8 Plain Text
  145. Duration                    : 2 h 2 min
  146. Bit rate                    : 45 b/s
  147. Count of elements           : 1224
  148. Stream size                 : 40.5 KiB (0%)
  149. Language                    : Spanish
  150. Default                     : Yes
  151. Forced                      : Yes
  152.  
  153. Text #6
  154. ID                          : 9
  155. Format                      : UTF-8
  156. Codec ID                    : S_TEXT/UTF8
  157. Codec ID/Info               : UTF-8 Plain Text
  158. Duration                    : 1 h 58 min
  159. Bit rate                    : 2 b/s
  160. Count of elements           : 61
  161. Stream size                 : 2.07 KiB (0%)
  162. Language                    : Spanish
  163. Default                     : No
  164. Forced                      : No
  165.  
  166. Menu
  167. 00:04:08.457                : :Chapter 01
  168. 00:09:36.367                : :Chapter 02
  169. 00:14:30.078                : :Chapter 03
  170. 00:19:49.897                : :Chapter 04
  171. 00:24:41.063                : :Chapter 05
  172. 00:29:45.826                : :Chapter 06
  173. 00:35:00.598                : :Chapter 07
  174. 00:39:07.595                : :Chapter 08
  175. 00:47:28.220                : :Chapter 09
  176. 00:57:16.224                : :Chapter 10
  177. 01:02:55.271                : :Chapter 11
  178. 01:09:26.829                : :Chapter 12
  179. 01:14:30.299                : :Chapter 13
  180. 01:21:43.774                : :Chapter 14
  181. 01:30:10.530                : :Chapter 15
  182. 01:38:15.515                : :Capítulo 16
  183. 01:44:08.742                : :Capítulo 17
  184. 01:54:07.215                : :Capítulo 18
RAW Paste Data
We use cookies for various purposes including analytics. By continuing to use Pastebin, you agree to our use of cookies as described in the Cookies Policy. OK, I Understand
 
Top