Advertisement
yushiro

p.La Leyenda de Sam Guard (1964)[BDRemux 1080p].yus

Feb 28th, 2021
90
0
Never
Not a member of Pastebin yet? Sign Up, it unlocks many cool features!
text 6.17 KB | None | 0 0
  1. General
  2. Unique ID : 104061406511762418153673347052624107319 (0x4E497F756E59428B08EDBA50083B5737)
  3. Complete name : G:\La Leyenda de Sam Guard (1964)[BDRemux 1080p].mkv
  4. Format : Matroska
  5. Format version : Version 4
  6. File size : 19.2 GiB
  7. Duration : 1 h 20 min
  8. Overall bit rate mode : Variable
  9. Overall bit rate : 34.3 Mb/s
  10. Encoded date : UTC 2021-02-26 15:28:22
  11. Writing application : mkvmerge v51.0.0 ('I Wish') 64-bit
  12. Writing library : libebml v1.4.0 + libmatroska v1.6.2
  13.  
  14. Video
  15. ID : 1
  16. Format : AVC
  17. Format/Info : Advanced Video Codec
  18. Format profile : High@L4.1
  19. Format settings : CABAC / 4 Ref Frames
  20. Format settings, CABAC : Yes
  21. Format settings, Reference : 4 frames
  22. Format settings, GOP : M=3, N=23
  23. Codec ID : V_MPEG4/ISO/AVC
  24. Duration : 1 h 20 min
  25. Bit rate mode : Variable
  26. Bit rate : 33.4 Mb/s
  27. Maximum bit rate : 35.0 Mb/s
  28. Width : 1 920 pixels
  29. Height : 1 080 pixels
  30. Display aspect ratio : 16:9
  31. Frame rate mode : Constant
  32. Frame rate : 23.976 (24000/1001) FPS
  33. Standard : NTSC
  34. Color space : YUV
  35. Chroma subsampling : 4:2:0
  36. Bit depth : 8 bits
  37. Scan type : Progressive
  38. Bits/(Pixel*Frame) : 0.673
  39. Stream size : 18.7 GiB (97%)
  40. Title : La Leyenda de Sam Guard (1964)[BDRemux 1080p]
  41. Language : Spanish
  42. Default : Yes
  43. Forced : No
  44. Color range : Limited
  45. Color primaries : BT.709
  46. Transfer characteristics : BT.709
  47. Matrix coefficients : BT.709
  48.  
  49. Audio #1
  50. ID : 2
  51. Format : AC-3
  52. Format/Info : Audio Coding 3
  53. Commercial name : Dolby Digital
  54. Codec ID : A_AC3
  55. Duration : 1 h 19 min
  56. Bit rate mode : Constant
  57. Bit rate : 448 kb/s
  58. Channel(s) : 2 channels
  59. Channel layout : L R
  60. Sampling rate : 48.0 kHz
  61. Frame rate : 31.250 FPS (1536 SPF)
  62. Compression mode : Lossy
  63. Stream size : 256 MiB (1%)
  64. Title : Castellano AC3 Stéreo
  65. Language : Spanish
  66. Service kind : Complete Main
  67. Default : Yes
  68. Forced : No
  69.  
  70. Audio #2
  71. ID : 3
  72. Format : FLAC
  73. Format/Info : Free Lossless Audio Codec
  74. Codec ID : A_FLAC
  75. Duration : 1 h 20 min
  76. Bit rate mode : Variable
  77. Bit rate : 234 kb/s
  78. Channel(s) : 2 channels
  79. Channel layout : L R
  80. Sampling rate : 48.0 kHz
  81. Frame rate : 11.719 FPS (4096 SPF)
  82. Bit depth : 16 bits
  83. Compression mode : Lossless
  84. Stream size : 134 MiB (1%)
  85. Title : Inglés 2.0
  86. Writing library : libFLAC 1.3.3 (UTC 2019-08-04)
  87. Language : English
  88. Default : No
  89. Forced : No
  90.  
  91. Audio #3
  92. ID : 4
  93. Format : AC-3
  94. Format/Info : Audio Coding 3
  95. Commercial name : Dolby Digital
  96. Codec ID : A_AC3
  97. Duration : 1 h 20 min
  98. Bit rate mode : Constant
  99. Bit rate : 192 kb/s
  100. Channel(s) : 2 channels
  101. Channel layout : L R
  102. Sampling rate : 48.0 kHz
  103. Frame rate : 31.250 FPS (1536 SPF)
  104. Compression mode : Lossy
  105. Stream size : 110 MiB (1%)
  106. Title : Francés 2.0
  107. Language : French
  108. Service kind : Complete Main
  109. Default : No
  110. Forced : No
  111.  
  112. Text #1
  113. ID : 5
  114. Format : UTF-8
  115. Codec ID : S_TEXT/UTF8
  116. Codec ID/Info : UTF-8 Plain Text
  117. Duration : 1 h 19 min
  118. Bit rate : 39 b/s
  119. Count of elements : 673
  120. Stream size : 23.0 KiB (0%)
  121. Title : Castellano
  122. Language : Spanish
  123. Default : No
  124. Forced : No
  125.  
  126. Text #2
  127. ID : 6
  128. Format : UTF-8
  129. Codec ID : S_TEXT/UTF8
  130. Codec ID/Info : UTF-8 Plain Text
  131. Duration : 1 h 17 min
  132. Bit rate : 45 b/s
  133. Count of elements : 748
  134. Stream size : 25.9 KiB (0%)
  135. Title : Inglés
  136. Language : English
  137. Default : No
  138. Forced : No
  139.  
  140. Text #3
  141. ID : 7
  142. Format : UTF-8
  143. Codec ID : S_TEXT/UTF8
  144. Codec ID/Info : UTF-8 Plain Text
  145. Duration : 1 h 19 min
  146. Bit rate : 36 b/s
  147. Count of elements : 670
  148. Stream size : 20.9 KiB (0%)
  149. Title : Francés
  150. Language : French
  151. Default : No
  152. Forced : No
  153.  
  154. Menu
  155. 00:00:00.000 : en:Chapter 1
  156. 00:01:44.521 : en:Chapter 2
  157. 00:06:18.044 : en:Chapter 3
  158. 00:10:59.909 : en:Chapter 4
  159. 00:19:06.062 : en:Chapter 5
  160. 00:24:50.572 : en:Chapter 6
  161. 00:32:01.837 : en:Chapter 7
  162. 00:41:27.819 : en:Chapter 8
  163. 00:48:16.477 : en:Chapter 9
  164. 00:55:10.224 : en:Chapter 10
  165. 01:07:01.726 : en:Chapter 11
  166.  
  167.  
Advertisement
Add Comment
Please, Sign In to add comment
Advertisement