AlemaoPS

Untitled

Aug 25th, 2019
125
Never
Not a member of Pastebin yet? Sign Up, it unlocks many cool features!
  1. General
  2. Complete name : D:\\\BDMV\PLAYLIST\00800.mpls
  3. Format : Blu-ray Playlist
  4. File size : 930 Bytes
  5. Duration : 1 h 57 min
  6. Overall bit rate mode : Variable
  7. Overall bit rate : 1 b/s
  8.  
  9. Video
  10. ID : 4113 (0x1011)
  11. Menu ID : 1 (0x1)
  12. Format : AVC
  13. Format/Info : Advanced Video Codec
  14. Format profile : High@L4.1
  15. Format settings, CABAC : Yes
  16. Format settings, RefFrames : 2 frames
  17. Codec ID : 27
  18. Duration : 1 h 57 min
  19. Bit rate mode : Variable
  20. Bit rate : 14.6 Mb/s
  21. Maximum bit rate : 33.8 Mb/s
  22. Width : 1 920 pixels
  23. Height : 1 080 pixels
  24. Display aspect ratio : 16:9
  25. Frame rate : 23.976 (24000/1001) FPS
  26. Color space : YUV
  27. Chroma subsampling : 4:2:0
  28. Bit depth : 8 bits
  29. Scan type : Progressive
  30. Bits/(Pixel*Frame) : 0.294
  31. Stream size : 12.0 GiB
  32. format_identifier : HDMV
  33. Source : 00387.m2ts / 00387.m2ts
  34.  
  35. Audio #1
  36. ID : 4352 (0x1100)
  37. Menu ID : 1 (0x1)
  38. Format : DTS
  39. Format/Info : Digital Theater Systems
  40. Mode : 16
  41. Format settings, Endianness : Big
  42. Codec ID : 130
  43. Duration : 1 h 57 min
  44. Bit rate mode : Constant
  45. Bit rate : 1 509 kb/s
  46. Channel(s) : 6 channels
  47. Channel positions : Front: L C R, Side: L R, LFE
  48. Sampling rate : 48.0 kHz
  49. Frame rate : 93.750 FPS (512 SPF)
  50. Bit depth : 24 bits
  51. Compression mode : Lossy
  52. Stream size : 1.24 GiB
  53. Language : English
  54. Source : 00387.m2ts / 00387.m2ts
  55.  
  56. Audio #2
  57. ID : 4353 (0x1101)
  58. Menu ID : 1 (0x1)
  59. Format : DTS
  60. Format/Info : Digital Theater Systems
  61. Mode : 16
  62. Format settings, Endianness : Big
  63. Codec ID : 130
  64. Duration : 1 h 57 min
  65. Bit rate mode : Constant
  66. Bit rate : 768 kb/s
  67. Channel(s) : 6 channels
  68. Channel positions : Front: L C R, Side: L R, LFE
  69. Sampling rate : 48.0 kHz
  70. Frame rate : 93.750 FPS (512 SPF)
  71. Bit depth : 24 bits
  72. Compression mode : Lossy
  73. Stream size : 647 MiB
  74. Language : Portuguese
  75. Source : 00387.m2ts / 00387.m2ts
  76.  
  77. Audio #3
  78. ID : 4354 (0x1102)
  79. Menu ID : 1 (0x1)
  80. Format : DTS
  81. Format/Info : Digital Theater Systems
  82. Mode : 16
  83. Format settings, Endianness : Big
  84. Codec ID : 130
  85. Duration : 1 h 57 min
  86. Bit rate mode : Constant
  87. Bit rate : 768 kb/s
  88. Channel(s) : 6 channels
  89. Channel positions : Front: L C R, Side: L R, LFE
  90. Sampling rate : 48.0 kHz
  91. Frame rate : 93.750 FPS (512 SPF)
  92. Bit depth : 24 bits
  93. Compression mode : Lossy
  94. Stream size : 647 MiB
  95. Language : Spanish
  96. Source : 00387.m2ts / 00387.m2ts
  97.  
  98. Audio #4
  99. ID : 4355 (0x1103)
  100. Menu ID : 1 (0x1)
  101. Format : DTS
  102. Format/Info : Digital Theater Systems
  103. Mode : 16
  104. Format settings, Endianness : Big
  105. Codec ID : 130
  106. Duration : 1 h 57 min
  107. Bit rate mode : Constant
  108. Bit rate : 768 kb/s
  109. Channel(s) : 6 channels
  110. Channel positions : Front: L C R, Side: L R, LFE
  111. Sampling rate : 48.0 kHz
  112. Frame rate : 93.750 FPS (512 SPF)
  113. Bit depth : 24 bits
  114. Compression mode : Lossy
  115. Stream size : 647 MiB
  116. Language : French
  117. Source : 00387.m2ts / 00387.m2ts
  118.  
  119. Audio #5
  120. ID : 4356 (0x1104)
  121. Menu ID : 1 (0x1)
  122. Format : DTS
  123. Format/Info : Digital Theater Systems
  124. Mode : 16
  125. Format settings, Endianness : Big
  126. Codec ID : 130
  127. Duration : 1 h 57 min
  128. Bit rate mode : Constant
  129. Bit rate : 768 kb/s
  130. Channel(s) : 6 channels
  131. Channel positions : Front: L C R, Side: L R, LFE
  132. Sampling rate : 48.0 kHz
  133. Frame rate : 93.750 FPS (512 SPF)
  134. Bit depth : 24 bits
  135. Compression mode : Lossy
  136. Stream size : 647 MiB
  137. Language : German
  138. Source : 00387.m2ts / 00387.m2ts
  139.  
  140. Audio #6
  141. ID : 4357 (0x1105)
  142. Menu ID : 1 (0x1)
  143. Format : DTS
  144. Format/Info : Digital Theater Systems
  145. Mode : 16
  146. Format settings, Endianness : Big
  147. Codec ID : 130
  148. Duration : 1 h 57 min
  149. Bit rate mode : Constant
  150. Bit rate : 768 kb/s
  151. Channel(s) : 6 channels
  152. Channel positions : Front: L C R, Side: L R, LFE
  153. Sampling rate : 48.0 kHz
  154. Frame rate : 93.750 FPS (512 SPF)
  155. Bit depth : 24 bits
  156. Compression mode : Lossy
  157. Stream size : 647 MiB
  158. Language : Italian
  159. Source : 00387.m2ts / 00387.m2ts
  160.  
  161. Audio #7
  162. ID : 4358 (0x1106)
  163. Menu ID : 1 (0x1)
  164. Format : DTS
  165. Format/Info : Digital Theater Systems
  166. Mode : 16
  167. Format settings, Endianness : Big
  168. Codec ID : 130
  169. Duration : 1 h 57 min
  170. Bit rate mode : Constant
  171. Bit rate : 768 kb/s
  172. Channel(s) : 6 channels
  173. Channel positions : Front: L C R, Side: L R, LFE
  174. Sampling rate : 48.0 kHz
  175. Frame rate : 93.750 FPS (512 SPF)
  176. Bit depth : 24 bits
  177. Compression mode : Lossy
  178. Stream size : 647 MiB
  179. Language : Spanish
  180. Source : 00387.m2ts / 00387.m2ts
  181.  
  182. Audio #8
  183. ID : 4359 (0x1107)
  184. Menu ID : 1 (0x1)
  185. Format : AC-3
  186. Format/Info : Audio Coding 3
  187. Mode : Dolby Digital
  188. Format settings, Endianness : Big
  189. Codec ID : 129
  190. Duration : 1 h 57 min
  191. Bit rate mode : Constant
  192. Bit rate : 192 kb/s
  193. Channel(s) : 2 channels
  194. Channel positions : Front: L R
  195. Sampling rate : 48.0 kHz
  196. Frame rate : 31.250 FPS (1536 SPF)
  197. Bit depth : 16 bits
  198. Compression mode : Lossy
  199. Stream size : 162 MiB
  200. Language : English
  201. Service kind : Complete Main
  202. bsid : 6
  203. dialnorm : -27
  204. dialnorm : -27 dB
  205. compr : 5.74
  206. compr : 5.74 dB
  207. dsurmod : 2
  208. dsurmod : Dolby Surround encoded
  209. acmod : 2
  210. lfeon : 0
  211. dialnorm_Average : -27
  212. dialnorm_Average : -27 dB
  213. dialnorm_Minimum : -27
  214. dialnorm_Minimum : -27 dB
  215. dialnorm_Maximum : -27
  216. dialnorm_Maximum : -27 dB
  217. dialnorm_Count : 1239
  218. compr_Average : 1.14
  219. compr_Average : 1.14 dB
  220. compr_Minimum : -3.25
  221. compr_Minimum : -3.25 dB
  222. compr_Maximum : 5.74
  223. compr_Maximum : 5.74 dB
  224. compr_Count : 1110
  225. format_identifier : AC-3
  226. Source : 00387.m2ts / 00387.m2ts
  227.  
  228. Text #1
  229. ID : 4608 (0x1200)
  230. Menu ID : 1 (0x1)
  231. Format : PGS
  232. Codec ID : 144
  233. Duration : 1 h 57 min
  234. Language : English
  235. Source : 00387.m2ts / 00387.m2ts
  236.  
  237. Text #2
  238. ID : 4609 (0x1201)
  239. Menu ID : 1 (0x1)
  240. Format : PGS
  241. Codec ID : 144
  242. Duration : 1 h 57 min
  243. Language : Portuguese
  244. Source : 00387.m2ts / 00387.m2ts
  245.  
  246. Text #3
  247. ID : 4610 (0x1202)
  248. Menu ID : 1 (0x1)
  249. Format : PGS
  250. Codec ID : 144
  251. Duration : 1 h 57 min
  252. Language : Spanish
  253. Source : 00387.m2ts / 00387.m2ts
  254.  
  255. Text #4
  256. ID : 4611 (0x1203)
  257. Menu ID : 1 (0x1)
  258. Format : PGS
  259. Codec ID : 144
  260. Duration : 1 h 57 min
  261. Language : Danish
  262. Source : 00387.m2ts / 00387.m2ts
  263.  
  264. Text #5
  265. ID : 4612 (0x1204)
  266. Menu ID : 1 (0x1)
  267. Format : PGS
  268. Codec ID : 144
  269. Duration : 1 h 57 min
  270. Language : Dutch
  271. Source : 00387.m2ts / 00387.m2ts
  272.  
  273. Text #6
  274. ID : 4613 (0x1205)
  275. Menu ID : 1 (0x1)
  276. Format : PGS
  277. Codec ID : 144
  278. Duration : 1 h 57 min
  279. Language : Finnish
  280. Source : 00387.m2ts / 00387.m2ts
  281.  
  282. Text #7
  283. ID : 4614 (0x1206)
  284. Menu ID : 1 (0x1)
  285. Format : PGS
  286. Codec ID : 144
  287. Duration : 1 h 57 min
  288. Language : French
  289. Source : 00387.m2ts / 00387.m2ts
  290.  
  291. Text #8
  292. ID : 4615 (0x1207)
  293. Menu ID : 1 (0x1)
  294. Format : PGS
  295. Codec ID : 144
  296. Duration : 1 h 57 min
  297. Language : German
  298. Source : 00387.m2ts / 00387.m2ts
  299.  
  300. Text #9
  301. ID : 4616 (0x1208)
  302. Menu ID : 1 (0x1)
  303. Format : PGS
  304. Codec ID : 144
  305. Duration : 1 h 57 min
  306. Language : Icelandic
  307. Source : 00387.m2ts / 00387.m2ts
  308.  
  309. Text #10
  310. ID : 4617 (0x1209)
  311. Menu ID : 1 (0x1)
  312. Format : PGS
  313. Codec ID : 144
  314. Duration : 1 h 57 min
  315. Language : Italian
  316. Source : 00387.m2ts / 00387.m2ts
  317.  
  318. Text #11
  319. ID : 4618 (0x120A)
  320. Menu ID : 1 (0x1)
  321. Format : PGS
  322. Codec ID : 144
  323. Duration : 1 h 57 min
  324. Language : Norwegian
  325. Source : 00387.m2ts / 00387.m2ts
  326.  
  327. Text #12
  328. ID : 4619 (0x120B)
  329. Menu ID : 1 (0x1)
  330. Format : PGS
  331. Codec ID : 144
  332. Duration : 1 h 57 min
  333. Language : Swedish
  334. Source : 00387.m2ts / 00387.m2ts
  335.  
  336. Text #13
  337. ID : 4620 (0x120C)
  338. Menu ID : 1 (0x1)
  339. Format : PGS
  340. Codec ID : 144
  341. Duration : 1 h 57 min
  342. Language : Portuguese
  343. Source : 00387.m2ts / 00387.m2ts
  344.  
  345. Text #14
  346. ID : 4620 (0x120C)
  347. Format : PGS
  348. Duration : 1 h 57 min
  349. Language : Portuguese
  350.  
  351. Text #15
  352. ID : 4608 (0x1200)
  353. Format : PGS
  354. Duration : 1 h 57 min
  355. Language : Spanish
  356.  
  357. Text #16
  358. ID : 4608 (0x1200)
  359. Format : PGS
  360. Duration : 1 h 57 min
  361. Language : German
  362.  
  363. Text #17
  364. ID : 4608 (0x1200)
  365. Format : PGS
  366. Duration : 1 h 57 min
  367. Language : Italian
  368.  
  369. Text #18
  370. ID : 4608 (0x1200)
  371. Format : PGS
  372. Duration : 1 h 57 min
  373. Language : Spanish
  374.  
  375. Text #19
  376. ID : 4608 (0x1200)
  377. Format : PGS
  378. Duration : 1 h 57 min
  379. Language : English
  380.  
  381. Text #20
  382. ID : 4608 (0x1200)
  383. Format : PGS
  384. Duration : 1 h 57 min
  385. Language : Spanish
  386.  
  387. Text #21
  388. ID : 4608 (0x1200)
  389. Format : PGS
  390. Duration : 1 h 57 min
  391. Language : French
  392.  
  393. Text #22
  394. ID : 4608 (0x1200)
  395. Format : PGS
  396. Duration : 1 h 57 min
  397. Language : German
  398.  
  399. Text #23
  400. ID : 4608 (0x1200)
  401. Format : PGS
  402. Duration : 1 h 57 min
  403. Language : Italian
  404.  
  405. Menu
  406. 00:00:00.000 : Chapter 1
  407. 00:05:34.042 : Chapter 2
  408. 00:12:39.300 : Chapter 3
  409. 00:17:21.832 : Chapter 4
  410. 00:24:46.026 : Chapter 5
  411. 00:31:28.052 : Chapter 6
  412. 00:37:33.125 : Chapter 7
  413. 00:41:12.970 : Chapter 8
  414. 00:47:44.027 : Chapter 9
  415. 00:52:43.285 : Chapter 10
  416. 01:00:28.249 : Chapter 11
  417. 01:04:38.749 : Chapter 12
  418. 01:08:10.753 : Chapter 13
  419. 01:14:49.193 : Chapter 14
  420. 01:20:28.365 : Chapter 15
  421. 01:27:31.162 : Chapter 16
  422. 01:35:40.526 : Chapter 17
  423. 01:40:36.196 : Chapter 18
  424. 01:47:16.096 : Chapter 19
  425. 01:52:59.272 : Chapter 20
  426. 01:57:46.976 : Chapter 21
RAW Paste Data

Adblocker detected! Please consider disabling it...

We've detected AdBlock Plus or some other adblocking software preventing Pastebin.com from fully loading.

We don't have any obnoxious sound, or popup ads, we actively block these annoying types of ads!

Please add Pastebin.com to your ad blocker whitelist or disable your adblocking software.

×