Guest User

Untitled

a guest
Sep 19th, 2019
640
Never
Not a member of Pastebin yet? Sign Up, it unlocks many cool features!
  1. General
  2. Unique ID : 153060147366331395404765903252129960254 (0x73264FE67982B0734A92CF837135D13E)
  3. Complete name : D:\Video111\Shaft.2019.BDRip.720p.seleZen.mkv
  4. Format : Matroska
  5. Format version : Version 4
  6. File size : 4.89 GiB
  7. Duration : 1 h 51 min
  8. Overall bit rate : 6 280 kb/s
  9. Movie name : Shaft 2019 from селезень
  10. Encoded date : UTC 2019-09-19 11:56:56
  11. Writing application : mkvmerge v22.0.0 ('At The End Of The World') 64-bit
  12. Writing library : libebml v1.3.5 + libmatroska v1.4.8
  13.  
  14. Video
  15. ID : 1
  16. Format : AVC
  17. Format/Info : Advanced Video Codec
  18. Format profile : High@L4.1
  19. Format settings : CABAC / 12 Ref Frames
  20. Format settings, CABAC : Yes
  21. Format settings, Reference : 12 frames
  22. Codec ID : V_MPEG4/ISO/AVC
  23. Duration : 1 h 51 min
  24. Bit rate : 5 000 kb/s
  25. Width : 1 280 pixels
  26. Height : 536 pixels
  27. Display aspect ratio : 2.40:1
  28. Frame rate mode : Constant
  29. Frame rate : 23.976 (24000/1001) FPS
  30. Color space : YUV
  31. Chroma subsampling : 4:2:0
  32. Bit depth : 8 bits
  33. Scan type : Progressive
  34. Bits/(Pixel*Frame) : 0.304
  35. Stream size : 3.89 GiB (80%)
  36. Title : Encoded by seleZen
  37. Writing library : x264 core 148 r2705kMod 3f5ed56
  38. Encoding settings : cabac=1 / ref=12 / deblock=1:-2:-2 / analyse=0x3:0x113 / me=umh / subme=11 / psy=1 / fade_compensate=0.00 / psy_rd=1.00:0.01 / mixed_ref=1 / me_range=32 / chroma_me=1 / trellis=2 / 8x8dct=1 / cqm=0 / deadzone=21,11 / fast_pskip=0 / chroma_qp_offset=-3 / threads=17 / lookahead_threads=4 / sliced_threads=0 / nr=0 / decimate=0 / interlaced=0 / bluray_compat=0 / constrained_intra=0 / fgo=0 / bframes=10 / b_pyramid=2 / b_adapt=2 / b_bias=0 / direct=3 / weightb=1 / open_gop=0 / weightp=2 / keyint=240 / keyint_min=23 / scenecut=40 / intra_refresh=0 / rc_lookahead=50 / rc=2pass / mbtree=0 / bitrate=5000 / ratetol=1.0 / qcomp=0.60 / qpmin=0 / qpmax=51 / qpstep=4 / cplxblur=20.0 / qblur=0.5 / vbv_maxrate=50000 / vbv_bufsize=62500 / nal_hrd=none / filler=0 / ip_ratio=1.40 / pb_ratio=1.30 / aq=3:0.80
  39. Language : English
  40. Default : Yes
  41. Forced : No
  42.  
  43. Audio #1
  44. ID : 2
  45. Format : AC-3
  46. Format/Info : Audio Coding 3
  47. Commercial name : Dolby Digital
  48. Codec ID : A_AC3
  49. Duration : 1 h 51 min
  50. Bit rate mode : Constant
  51. Bit rate : 640 kb/s
  52. Channel(s) : 6 channels
  53. Channel layout : L R C LFE Ls Rs
  54. Sampling rate : 48.0 kHz
  55. Frame rate : 31.250 FPS (1536 SPF)
  56. Bit depth : 16 bits
  57. Compression mode : Lossy
  58. Stream size : 511 MiB (10%)
  59. Title : Netflix
  60. Language : Russian
  61. Service kind : Complete Main
  62. Default : Yes
  63. Forced : Yes
  64.  
  65. Audio #2
  66. ID : 3
  67. Format : AC-3
  68. Format/Info : Audio Coding 3
  69. Commercial name : Dolby Digital
  70. Codec ID : A_AC3
  71. Duration : 1 h 51 min
  72. Bit rate mode : Constant
  73. Bit rate : 640 kb/s
  74. Channel(s) : 6 channels
  75. Channel layout : L R C LFE Ls Rs
  76. Sampling rate : 48.0 kHz
  77. Frame rate : 31.250 FPS (1536 SPF)
  78. Bit depth : 16 bits
  79. Compression mode : Lossy
  80. Stream size : 511 MiB (10%)
  81. Title : Original
  82. Language : English
  83. Service kind : Complete Main
  84. Default : No
  85. Forced : No
  86.  
  87. Text #1
  88. ID : 4
  89. Format : UTF-8
  90. Codec ID : S_TEXT/UTF8
  91. Codec ID/Info : UTF-8 Plain Text
  92. Duration : 1 h 50 min
  93. Bit rate : 3 b/s
  94. Count of elements : 47
  95. Stream size : 2.55 KiB (0%)
  96. Title : Forced
  97. Language : Russian
  98. Default : Yes
  99. Forced : Yes
  100.  
  101. Text #2
  102. ID : 5
  103. Format : UTF-8
  104. Codec ID : S_TEXT/UTF8
  105. Codec ID/Info : UTF-8 Plain Text
  106. Duration : 1 h 50 min
  107. Bit rate : 119 b/s
  108. Count of elements : 1990
  109. Stream size : 96.9 KiB (0%)
  110. Title : Full
  111. Language : Russian
  112. Default : No
  113. Forced : No
  114.  
  115. Text #3
  116. ID : 6
  117. Format : UTF-8
  118. Codec ID : S_TEXT/UTF8
  119. Codec ID/Info : UTF-8 Plain Text
  120. Duration : 1 h 51 min
  121. Bit rate : 92 b/s
  122. Count of elements : 2210
  123. Stream size : 75.3 KiB (0%)
  124. Title : Full
  125. Language : English
  126. Default : No
  127. Forced : No
  128.  
  129. Text #4
  130. ID : 7
  131. Format : UTF-8
  132. Codec ID : S_TEXT/UTF8
  133. Codec ID/Info : UTF-8 Plain Text
  134. Duration : 1 h 51 min
  135. Bit rate : 102 b/s
  136. Count of elements : 2515
  137. Stream size : 83.2 KiB (0%)
  138. Title : SDH
  139. Language : English
  140. Default : No
  141. Forced : No
  142.  
  143. Menu
  144. 00:00:00.000 : en:00:00:00.000
  145. 00:08:02.774 : en:00:08:02.774
  146. 00:17:38.557 : en:00:17:38.557
  147. 00:27:55.924 : en:00:27:55.924
  148. 00:35:34.466 : en:00:35:34.466
  149. 00:41:22.438 : en:00:41:22.438
  150. 00:49:58.996 : en:00:49:58.996
  151. 00:59:05.208 : en:00:59:05.208
  152. 01:08:15.883 : en:01:08:15.883
  153. 01:17:30.563 : en:01:17:30.563
  154. 01:23:12.196 : en:01:23:12.196
  155. 01:33:29.270 : en:01:33:29.270
  156. 01:43:14.021 : en:01:43:14.021
  157. 01:46:54.742 : en:01:46:54.742
RAW Paste Data