SHARE
TWEET

Shiropoint - Pinkie Pie's Party Cannon Part Three CUE sheet

Photon_Man62 Sep 3rd, 2014 484 Never
Not a member of Pastebin yet? Sign Up, it unlocks many cool features!
  1. PERFORMER "Shiropoint"
  2. TITLE "Pinkie Pie's Party Cannon Part Three"
  3. FILE "KVE - Shirosounds_PPPC3.mp3" MP3
  4.   TRACK 01 AUDIO
  5.     TITLE "Pinkie Can Play the Organ!"
  6.         PERFORMER "Andrea Libman"
  7.     INDEX 01 00:00:00
  8.   TRACK 02 AUDIO
  9.     TITLE "Fluffernutter (813 remix)"
  10.         PERFORMER "DZA"
  11.     INDEX 01 00:04:00
  12.   TRACK 03 AUDIO
  13.     TITLE "Higher Ground (no├» remix)"
  14.         PERFORMER "TNGHT"
  15.     INDEX 01 02:29:00
  16.   TRACK 04 AUDIO
  17.     TITLE "Stand Still (feat. Micky Green) (Waveracer remix)"
  18.         PERFORMER "Flight Facilities"
  19.     INDEX 01 03:35:27
  20.   TRACK 05 AUDIO
  21.     TITLE "The Beautiful Life"
  22.         PERFORMER "Bachelors of Science"
  23.     INDEX 01 06:10:30
  24.   TRACK 06 AUDIO
  25.     TITLE "Feeling Inside"
  26.         PERFORMER "Big Bud"
  27.     INDEX 01 10:13:00
  28.   TRACK 07 AUDIO
  29.     TITLE "The Light's Really Bad"
  30.         PERFORMER "Mistabishi"
  31.     INDEX 01 12:58:30
  32.   TRACK 08 AUDIO
  33.     TITLE "Wicked Ways"
  34.         PERFORMER "Bachelors of Science"
  35.     INDEX 01 15:32:50
  36.   TRACK 09 AUDIO
  37.     TITLE "Headturner"
  38.         PERFORMER "Blu Mar Ten"
  39.     INDEX 01 18:07:30
  40.   TRACK 10 AUDIO
  41.     TITLE "Rocking You"
  42.         PERFORMER "Loz Contreras"
  43.     INDEX 01 22:32:10
  44.   TRACK 11 AUDIO
  45.     TITLE "Wait for Me (feat. Zarif)"
  46.         PERFORMER "Danny Byrd"
  47.     INDEX 01 25:06:50
  48.   TRACK 12 AUDIO
  49.     TITLE "Time After Time"
  50.         PERFORMER "Break"
  51.     INDEX 01 28:44:45
  52.   TRACK 13 AUDIO
  53.     TITLE "Splashdown"
  54.         PERFORMER "ICR"
  55.     INDEX 01 31:04:00
  56.   TRACK 14 AUDIO
  57.     TITLE "Happy (Makoto 170 edit)"
  58.         PERFORMER "Pharrell Williams"
  59.     INDEX 01 32:56:00
  60.   TRACK 15 AUDIO
  61.     TITLE "Progressions"
  62.         PERFORMER "BMotion"
  63.     INDEX 01 36:09:00
  64.   TRACK 16 AUDIO
  65.     TITLE "Games People Play"
  66.         PERFORMER "Fred V & Grafix"
  67.     INDEX 01 37:37:00
  68.   TRACK 17 AUDIO
  69.     TITLE "Inner Space"
  70.         PERFORMER "Apex"
  71.     INDEX 01 41:39:55
  72.   TRACK 18 AUDIO
  73.     TITLE "Uplift"
  74.         PERFORMER "Xilent"
  75.     INDEX 01 44:58:25
  76.   TRACK 19 AUDIO
  77.     TITLE "Phamel Cat"
  78.         PERFORMER "Emperor"
  79.     INDEX 01 47:54:40
  80.   TRACK 20 AUDIO
  81.     TITLE "Deadly Funk"
  82.         PERFORMER "Nphonix, Paimon, Place 2B"
  83.     INDEX 01 49:45:20
  84.   TRACK 21 AUDIO
  85.     TITLE "Workout"
  86.         PERFORMER "Andy C"
  87.     INDEX 01 51:57:50
  88.   TRACK 22 AUDIO
  89.     TITLE "Imaz"
  90.         PERFORMER "Maztek"
  91.     INDEX 01 54:54:20
  92.   TRACK 23 AUDIO
  93.     TITLE "Tonight"
  94.         PERFORMER "Danny Byrd"
  95.     INDEX 01 55:16:25
  96.   TRACK 24 AUDIO
  97.     TITLE "Best Ever (Draper remix)"
  98.         PERFORMER "Tall Ships"
  99.     INDEX 01 57:51:00
RAW Paste Data
We use cookies for various purposes including analytics. By continuing to use Pastebin, you agree to our use of cookies as described in the Cookies Policy. OK, I Understand
Top