bog3417

Untitled

Nov 26th, 2013
225
Never
Not a member of Pastebin yet? Sign Up, it unlocks many cool features!
  1. Общее
  2. Уникальный идентификатор : 193700078047088052055025047200399262956 (0x91B9472E8DBF9041A34DDDBB696684EC)
  3. Полное имя : D:\Percy.Jackson.Sea.of.Monsters.2013.BluRay.1080p.DTS.Rus.Ukr.2xEng.HDCLUB.mkv
  4. Формат : Matroska
  5. Версия формата : Version 2
  6. Размер файла : 15,0 Гбайт
  7. Продолжительность : 1 ч. 46 м.
  8. Общий поток : 20,2 Мбит/сек
  9. Название фильма : Percy Jackson: Sea of Monsters (2013) - Release for HDCLUB
  10. Дата кодирования : UTC 2013-11-26 18:37:15
  11. Программа кодирования : mkvmerge v3.4.0 ('Rapunzel') built on May 15 2010 09:38:20
  12. Библиотека кодирования : libebml v0.8.0 + libmatroska v0.9.0
  13.  
  14. Видео
  15. Идентификатор : 1
  16. Формат : AVC
  17. Формат/Информация : Advanced Video Codec
  18. Профиль формата : High@L4.1
  19. Параметр CABAC формата : Да
  20. Параметр ReFrames формата : 5 кадров
  21. Идентификатор кодека : V_MPEG4/ISO/AVC
  22. Продолжительность : 1 ч. 46 м.
  23. Битрейт : 17,0 Мбит/сек
  24. Ширина : 1920 пикселей
  25. Высота : 816 пикселей
  26. Соотношение сторон : 2,35:1
  27. Режим частоты кадров : Постоянный
  28. Частота кадров : 23,976 кадра/сек
  29. Цветовое пространство : YUV
  30. Субдискретизация насыщенности : 4:2:0
  31. Битовая глубина : 8 бит
  32. Тип развёртки : Прогрессивная
  33. Бит/(Пиксели*Кадры) : 0.453
  34. Размер потока : 12,3 Гбайт (82%)
  35. Заголовок : Percy Jackson: Sea of Monsters (2013) - Release for HDCLUB
  36. Библиотека кодирования : x264 core 140 r2377 1ca7bb9
  37. Настройки программы : cabac=1 / ref=5 / deblock=1:-3:-3 / analyse=0x3:0x133 / me=tesa / subme=10 / psy=1 / psy_rd=1.05:0.00 / mixed_ref=1 / me_range=24 / chroma_me=1 / trellis=2 / 8x8dct=1 / cqm=0 / deadzone=21,11 / fast_pskip=0 / chroma_qp_offset=-2 / threads=12 / lookahead_threads=3 / sliced_threads=0 / nr=0 / decimate=0 / interlaced=0 / bluray_compat=0 / constrained_intra=0 / bframes=10 / b_pyramid=2 / b_adapt=2 / b_bias=0 / direct=3 / weightb=1 / open_gop=0 / weightp=2 / keyint=240 / keyint_min=23 / scenecut=40 / intra_refresh=0 / rc_lookahead=60 / rc=2pass / mbtree=0 / bitrate=17000 / ratetol=1.0 / qcomp=0.70 / qpmin=0 / qpmax=69 / qpstep=4 / cplxblur=20.0 / qblur=0.5 / vbv_maxrate=62500 / vbv_bufsize=78125 / nal_hrd=none / filler=0 / ip_ratio=1.20 / pb_ratio=1.10 / aq=1:0.80
  38. Язык : English
  39. Default : Да
  40. Forced : Нет
  41.  
  42. Аудио #1
  43. Идентификатор : 2
  44. Формат : DTS
  45. Формат/Информация : Digital Theater Systems
  46. Режим : 16
  47. Параметр Endianness формата : Big
  48. Идентификатор кодека : A_DTS
  49. Продолжительность : 1 ч. 46 м.
  50. Вид битрейта : Постоянный
  51. Битрейт : 768 Кбит/сек
  52. Каналы : 6 каналов
  53. Расположение каналов : Front: L C R, Side: L R, LFE
  54. Частота : 48,0 КГц
  55. Битовая глубина : 24 бит
  56. Метод сжатия : С потерями
  57. Размер потока : 583 Мбайт (4%)
  58. Заголовок : DTS 5.1 @ 768 kbps - DUB, Blu-ray EUR
  59. Язык : Russian
  60. Default : Да
  61. Forced : Нет
  62.  
  63. Аудио #2
  64. Идентификатор : 3
  65. Формат : AC-3
  66. Формат/Информация : Audio Coding 3
  67. Расширение режима : CM (complete main)
  68. Параметр Endianness формата : Big
  69. Идентификатор кодека : A_AC3
  70. Продолжительность : 1 ч. 46 м.
  71. Вид битрейта : Постоянный
  72. Битрейт : 448 Кбит/сек
  73. Каналы : 6 каналов
  74. Расположение каналов : Front: L C R, Side: L R, LFE
  75. Частота : 48,0 КГц
  76. Битовая глубина : 16 бит
  77. Метод сжатия : С потерями
  78. Размер потока : 340 Мбайт (2%)
  79. Заголовок : AC3 5.1 @ 448 kbps - DUB, Blu-ray EUR
  80. Язык : Ukrainian
  81. Default : Нет
  82. Forced : Нет
  83.  
  84. Аудио #3
  85. Идентификатор : 4
  86. Формат : DTS
  87. Формат/Информация : Digital Theater Systems
  88. Профиль формата : ES
  89. Режим : 16
  90. Параметр Endianness формата : Big
  91. Идентификатор кодека : A_DTS
  92. Продолжительность : 1 ч. 46 м.
  93. Вид битрейта : Постоянный
  94. Битрейт : 1509 Кбит/сек
  95. Каналы : 6 каналов
  96. Расположение каналов : Front: L C R, Side: L R, LFE
  97. Частота : 48,0 КГц
  98. Битовая глубина : 24 бит
  99. Метод сжатия : С потерями
  100. Задержка видео : 11 мс.
  101. Размер потока : 1,12 Гбайт (7%)
  102. Заголовок : DTS-ES @ 1536 kbps
  103. Язык : English
  104. Default : Нет
  105. Forced : Нет
  106.  
  107. Аудио #4
  108. Идентификатор : 5
  109. Формат : AC-3
  110. Формат/Информация : Audio Coding 3
  111. Расширение режима : CM (complete main)
  112. Параметр Endianness формата : Big
  113. Идентификатор кодека : A_AC3
  114. Продолжительность : 1 ч. 46 м.
  115. Вид битрейта : Постоянный
  116. Битрейт : 448 Кбит/сек
  117. Каналы : 6 каналов
  118. Расположение каналов : Front: L C R, Side: L R, LFE
  119. Частота : 48,0 КГц
  120. Битовая глубина : 16 бит
  121. Метод сжатия : С потерями
  122. Размер потока : 340 Мбайт (2%)
  123. Заголовок : AC3 5.1 @ 448 kbps - Descriptive
  124. Язык : English
  125. Default : Нет
  126. Forced : Нет
  127.  
  128. Текст #1
  129. Идентификатор : 6
  130. Формат : UTF-8
  131. Идентификатор кодека : S_TEXT/UTF8
  132. Идентификатор кодека/Информация : UTF-8 Plain Text
  133. Заголовок : Blu-ray EUR
  134. Язык : Russian
  135. Default : Нет
  136. Forced : Нет
  137.  
  138. Текст #2
  139. Идентификатор : 7
  140. Формат : UTF-8
  141. Идентификатор кодека : S_TEXT/UTF8
  142. Идентификатор кодека/Информация : UTF-8 Plain Text
  143. Заголовок : Blu-ray EUR
  144. Язык : Ukrainian
  145. Default : Нет
  146. Forced : Нет
  147.  
  148. Текст #3
  149. Идентификатор : 8
  150. Формат : UTF-8
  151. Идентификатор кодека : S_TEXT/UTF8
  152. Идентификатор кодека/Информация : UTF-8 Plain Text
  153. Заголовок : SDH-COLORED
  154. Язык : English
  155. Default : Нет
  156. Forced : Нет
  157.  
  158. Меню
  159. 00:00:00.000 : en:00:00:00.000
  160. 00:04:05.454 : en:00:04:05.454
  161. 00:06:43.069 : en:00:06:43.069
  162. 00:09:31.696 : en:00:09:31.696
  163. 00:13:53.124 : en:00:13:53.124
  164. 00:19:17.156 : en:00:19:17.156
  165. 00:20:48.038 : en:00:20:48.038
  166. 00:22:10.496 : en:00:22:10.496
  167. 00:25:30.529 : en:00:25:30.529
  168. 00:28:22.826 : en:00:28:22.826
  169. 00:30:27.534 : en:00:30:27.534
  170. 00:33:19.998 : en:00:33:19.998
  171. 00:37:01.261 : en:00:37:01.261
  172. 00:39:49.596 : en:00:39:49.596
  173. 00:45:16.380 : en:00:45:16.380
  174. 00:48:50.177 : en:00:48:50.177
  175. 00:52:42.951 : en:00:52:42.951
  176. 00:56:35.100 : en:00:56:35.100
  177. 01:00:19.866 : en:01:00:19.866
  178. 01:03:35.895 : en:01:03:35.895
  179. 01:05:40.687 : en:01:05:40.687
  180. 01:10:41.696 : en:01:10:41.696
  181. 01:12:32.181 : en:01:12:32.181
  182. 01:16:52.817 : en:01:16:52.817
  183. 01:19:39.441 : en:01:19:39.441
  184. 01:23:01.768 : en:01:23:01.768
  185. 01:25:45.807 : en:01:25:45.807
  186. 01:29:54.264 : en:01:29:54.264
  187. 01:32:47.312 : en:01:32:47.312
  188. 01:34:25.243 : en:01:34:25.243
  189. 01:36:07.971 : en:01:36:07.971
  190. 01:37:39.187 : en:01:37:39.187
RAW Paste Data

Adblocker detected! Please consider disabling it...

We've detected AdBlock Plus or some other adblocking software preventing Pastebin.com from fully loading.

We don't have any obnoxious sound, or popup ads, we actively block these annoying types of ads!

Please add Pastebin.com to your ad blocker whitelist or disable your adblocking software.

×