Henry_Kr

JQ1986-S01

Sep 3rd, 2020
42
Never
Not a member of Pastebin yet? Sign Up, it unlocks many cool features!
  1. Video
  2. ID : 1
  3. Format : AVC
  4. Format/Info : Advanced Video Codec
  5. Format profile : High@L4
  6. Format settings : CABAC / 4 Ref Frames
  7. Format settings, CABAC : Yes
  8. Format settings, Reference : 4 frames
  9. Muxing mode : Header stripping
  10. Codec ID : V_MPEG4/ISO/AVC
  11. Duration : 22 min 4 s
  12. Bit rate mode : Variable
  13. Bit rate : 8 038 kb/s
  14. Maximum bit rate : 12.4 Mb/s
  15. Width : 1 440 pixels
  16. Height : 1 080 pixels
  17. Display aspect ratio : 4:3
  18. Frame rate mode : Constant
  19. Frame rate : 23.976 (24000/1001) FPS
  20. Color space : YUV
  21. Chroma subsampling : 4:2:0
  22. Bit depth : 8 bits
  23. Scan type : Progressive
  24. Bits/(Pixel*Frame) : 0.216
  25. Stream size : 1.24 GiB (91%)
  26. Title : Jonny.Quest.1986.S01E01.O.Réptil.1080p.HMAX.WEB.[CartoonNOW]
  27. Language : English
  28. Default : Yes
  29. Forced : No
  30. Duration_Source : General_Duration
  31.  
  32. Audio #1
  33. ID : 2
  34. Format : AC-3
  35. Format/Info : Audio Coding 3
  36. Commercial name : Dolby Digital
  37. Muxing mode : Header stripping
  38. Codec ID : A_AC3
  39. Duration : 22 min 4 s
  40. Bit rate mode : Constant
  41. Bit rate : 192 kb/s
  42. Channel(s) : 2 channels
  43. Channel layout : L R
  44. Sampling rate : 48.0 kHz
  45. Frame rate : 31.250 FPS (1536 SPF)
  46. Compression mode : Lossy
  47. Stream size : 30.3 MiB (2%)
  48. Title : AC3 2.0
  49. Language : Portuguese
  50. Service kind : Complete Main
  51. Default : Yes
  52. Forced : No
  53. Duration_Source : General_Duration
  54.  
  55. Audio #2
  56. ID : 3
  57. Format : AC-3
  58. Format/Info : Audio Coding 3
  59. Commercial name : Dolby Digital
  60. Muxing mode : Header stripping
  61. Codec ID : A_AC3
  62. Duration : 22 min 4 s
  63. Bit rate mode : Constant
  64. Bit rate : 384 kb/s
  65. Channel(s) : 2 channels
  66. Channel layout : L R
  67. Sampling rate : 48.0 kHz
  68. Frame rate : 31.250 FPS (1536 SPF)
  69. Compression mode : Lossy
  70. Stream size : 60.6 MiB (4%)
  71. Title : AC3 2.0
  72. Language : English
  73. Service kind : Complete Main
  74. Default : No
  75. Forced : No
  76. Duration_Source : General_Duration
  77.  
  78.  
RAW Paste Data