SHARE
TWEET

Untitled

a guest Nov 12th, 2019 83 Never
Not a member of Pastebin yet? Sign Up, it unlocks many cool features!
  1. General
  2. Unique ID                                : 320319899306608029496515003144379632418 (0xF0FB5E5BA3142CB358D7146090D50B22)
  3. Complete name                            : The.Viking.War.2019.1080p.BluRay.REMUX.MPEG-2.DTS-HD.MA.5.1-EPSiLON.mkv
  4. Format                                   : Matroska
  5. Format version                           : Version 4
  6. File size                                : 15.4 GiB
  7. Duration                                 : 1 h 43 min
  8. Overall bit rate mode                    : Variable
  9. Overall bit rate                         : 21.2 Mb/s
  10. Movie name                               : The Viking War (2019)
  11. Encoded date                             : UTC 2019-11-12 10:47:43
  12. Writing application                      : mkvmerge v39.0.0 ('In The Waiting Line') 64-bit
  13. Writing library                          : libebml v1.3.9 + libmatroska v1.5.2
  14. IMDB                                     : tt8707008
  15. TMDB                                     : movie/584044
  16.  
  17. Video
  18. ID                                       : 1
  19. Format                                   : MPEG Video
  20. Format version                           : Version 2
  21. Format profile                           : Main@High
  22. Format settings                          : CustomMatrix / BVOP
  23. Format settings, BVOP                    : Yes
  24. Format settings, Matrix                  : Custom
  25. Format settings, GOP                     : M=3, N=15
  26. Codec ID                                 : V_MPEG2
  27. Codec ID/Info                            : MPEG 1 or 2 Video
  28. Duration                                 : 1 h 43 min
  29. Bit rate mode                            : Variable
  30. Bit rate                                 : 17.8 Mb/s
  31. Maximum bit rate                         : 25.0 Mb/s
  32. Width                                    : 1 920 pixels
  33. Height                                   : 1 080 pixels
  34. Display aspect ratio                     : 16:9
  35. Frame rate mode                          : Constant
  36. Frame rate                               : 24.000 FPS
  37. Color space                              : YUV
  38. Chroma subsampling                       : 4:2:0
  39. Bit depth                                : 8 bits
  40. Scan type                                : Progressive
  41. Compression mode                         : Lossy
  42. Bits/(Pixel*Frame)                       : 0.358
  43. Time code of first frame                 : 00:00:00:00
  44. Time code source                         : Group of pictures header
  45. GOP, Open/Closed                         : Closed
  46. Stream size                              : 12.9 GiB (84%)
  47. Title                                    : MPEG-2 Video / 17830 kbps / 1080p / 24 fps / 16:9
  48. Language                                 : English
  49. Default                                  : Yes
  50. Forced                                   : No
  51.  
  52. Audio
  53. ID                                       : 2
  54. Format                                   : DTS XLL
  55. Format/Info                              : Digital Theater Systems
  56. Commercial name                          : DTS-HD Master Audio
  57. Codec ID                                 : A_DTS
  58. Duration                                 : 1 h 43 min
  59. Bit rate mode                            : Variable
  60. Bit rate                                 : 3 370 kb/s
  61. Channel(s)                               : 6 channels
  62. Channel layout                           : C L R Ls Rs LFE
  63. Sampling rate                            : 48.0 kHz
  64. Frame rate                               : 93.750 FPS (512 SPF)
  65. Bit depth                                : 24 bits
  66. Compression mode                         : Lossless
  67. Stream size                              : 2.44 GiB (16%)
  68. Title                                    : DTS-HD Master Audio / 5.1 / 48 kHz / 3371 kbps / 24-bit
  69. Language                                 : English
  70. Default                                  : Yes
  71. Forced                                   : No
  72.  
  73. Menu
  74. 00:00:00.000                             : en:Chapter 1
  75. 00:11:28.000                             : en:Chapter 2
  76. 00:23:43.000                             : en:Chapter 3
  77. 00:37:50.000                             : en:Chapter 4
  78. 00:52:29.000                             : en:Chapter 5
  79. 01:04:26.000                             : en:Chapter 6
  80. 01:15:25.000                             : en:Chapter 7
  81. 01:28:52.000                             : en:Chapter 8
  82. 01:41:15.000                             : en:Chapter 9
RAW Paste Data
We use cookies for various purposes including analytics. By continuing to use Pastebin, you agree to our use of cookies as described in the Cookies Policy. OK, I Understand
 
Top