daily pastebin goal
26%
SHARE
TWEET

Untitled

a guest Dec 16th, 2018 87 Never
Not a member of Pastebin yet? Sign Up, it unlocks many cool features!
  1. General
  2. Format                      : Matroska
  3. Format version              : Version 4 / Version 2
  4. File size                   : 5.60 GiB
  5. Duration                    : 1 h 25 min
  6. Overall bit rate            : 9 411 kb/s
  7. Movie name                  : Pokémon the First Movie - Mewtwo strikes back
  8. Encoded date                : UTC 2017-07-23 23:08:26
  9. Writing application         : mkvmerge v13.0.0 ('The Juggler') 64bit
  10. Writing library             : libebml v1.3.4 + libmatroska v1.4.5
  11. Attachments                 : PURIBI10.TTF / PURI10.TTF / PURIB10.TTF
  12.  
  13. Video
  14. ID                          : 1
  15. Format                      : AVC
  16. Format/Info                 : Advanced Video Codec
  17. Format profile              : High@L4.1
  18. Format settings             : CABAC / 4 Ref Frames
  19. Format settings, CABAC      : Yes
  20. Format settings, ReFrames   : 4 frames
  21. Codec ID                    : V_MPEG4/ISO/AVC
  22. Duration                    : 1 h 25 min
  23. Bit rate                    : 8 000 kb/s
  24. Width                       : 1 920 pixels
  25. Height                      : 1 040 pixels
  26. Display aspect ratio        : 1.85:1
  27. Frame rate mode             : Constant
  28. Frame rate                  : 23.976 (24000/1001) FPS
  29. Color space                 : YUV
  30. Chroma subsampling          : 4:2:0
  31. Bit depth                   : 8 bits
  32. Scan type                   : Progressive
  33. Bits/(Pixel*Frame)          : 0.167
  34. Stream size                 : 4.76 GiB (85%)
  35. Title                       : H264 High@L4.1 1920x1040
  36. Writing library             : x264 core 125 r2200 999b753
  37. Encoding settings           : cabac=1 / ref=4 / deblock=1:-1:-1 / analyse=0x3:0x113 / me=umh / subme=9 / psy=1 / psy_rd=1.00:0.00 / mixed_ref=1 / me_range=24 / chroma_me=1 / trellis=2 / 8x8dct=1 / cqm=0 / deadzone=21,11 / fast_pskip=1 / chroma_qp_offset=-2 / threads=18 / lookahead_threads=3 / sliced_threads=0 / nr=0 / decimate=1 / interlaced=0 / bluray_compat=0 / constrained_intra=0 / bframes=3 / b_pyramid=0 / b_adapt=2 / b_bias=0 / direct=3 / weightb=1 / open_gop=0 / weightp=2 / keyint=240 / keyint_min=23 / scenecut=40 / intra_refresh=0 / rc_lookahead=50 / rc=2pass / mbtree=1 / bitrate=8000 / ratetol=1.0 / qcomp=0.60 / qpmin=10 / qpmax=51 / qpstep=4 / cplxblur=20.0 / qblur=0.5 / vbv_maxrate=50000 / vbv_bufsize=50000 / nal_hrd=none / ip_ratio=1.40 / aq=1:1.00
  38. Default                     : Yes
  39. Forced                      : No
  40.  
  41. Audio #1
  42. ID                          : 2
  43. Format                      : AC-3
  44. Format/Info                 : Audio Coding 3
  45. Codec ID                    : A_AC3
  46. Duration                    : 1 h 25 min
  47. Bit rate mode               : Constant
  48. Bit rate                    : 384 kb/s
  49. Channel(s)                  : 6 channels
  50. Channel positions           : Front: L C R, Side: L R, LFE
  51. Sampling rate               : 48.0 kHz
  52. Frame rate                  : 31.250 FPS (1536 SPF)
  53. Bit depth                   : 16 bits
  54. Compression mode            : Lossy
  55. Stream size                 : 234 MiB (4%)
  56. Title                       : ITA [AC3 5.1 384kbps]
  57. Language                    : Italian
  58. Service kind                : Complete Main
  59. Default                     : Yes
  60. Forced                      : No
  61.  
  62. Audio #2
  63. ID                          : 3
  64. Format                      : AC-3
  65. Format/Info                 : Audio Coding 3
  66. Codec ID                    : A_AC3
  67. Duration                    : 1 h 25 min
  68. Bit rate mode               : Constant
  69. Bit rate                    : 384 kb/s
  70. Channel(s)                  : 6 channels
  71. Channel positions           : Front: L C R, Side: L R, LFE
  72. Sampling rate               : 48.0 kHz
  73. Frame rate                  : 31.250 FPS (1536 SPF)
  74. Bit depth                   : 16 bits
  75. Compression mode            : Lossy
  76. Stream size                 : 234 MiB (4%)
  77. Title                       : ENG [AC3 5.1 384kbps]
  78. Language                    : English
  79. Service kind                : Complete Main
  80. Default                     : No
  81. Forced                      : No
  82.  
  83. Audio #3
  84. ID                          : 4
  85. Format                      : AC-3
  86. Format/Info                 : Audio Coding 3
  87. Codec ID                    : A_AC3
  88. Duration                    : 1 h 25 min
  89. Bit rate mode               : Constant
  90. Bit rate                    : 640 kb/s
  91. Channel(s)                  : 6 channels
  92. Channel positions           : Front: L C R, Side: L R, LFE
  93. Sampling rate               : 48.0 kHz
  94. Frame rate                  : 31.250 FPS (1536 SPF)
  95. Bit depth                   : 16 bits
  96. Compression mode            : Lossy
  97. Stream size                 : 390 MiB (7%)
  98. Title                       : JPN [AC3 5.1 640kbps]
  99. Language                    : Japanese
  100. Service kind                : Complete Main
  101. Default                     : No
  102. Forced                      : No
  103.  
  104. Text #1
  105. ID                          : 5
  106. Format                      : UTF-8
  107. Codec ID                    : S_TEXT/UTF8
  108. Codec ID/Info               : UTF-8 Plain Text
  109. Duration                    : 20 min 44 s
  110. Bit rate                    : 32 b/s
  111. Count of elements           : 158
  112. Stream size                 : 4.99 KiB (0%)
  113. Title                       : ITA - Intro fedeli [SRT]
  114. Language                    : Italian
  115. Default                     : Yes
  116. Forced                      : Yes
  117.  
  118. Text #2
  119. ID                          : 6
  120. Format                      : ASS
  121. Codec ID                    : S_TEXT/ASS
  122. Codec ID/Info               : Advanced Sub Station Alpha
  123. Duration                    : 20 min 44 s
  124. Bit rate                    : 52 b/s
  125. Count of elements           : 155
  126. Compression mode            : Lossless
  127. Stream size                 : 8.02 KiB (0%)
  128. Title                       : ITA - Intro fedeli [ASS]
  129. Language                    : Italian
  130. Default                     : No
  131. Forced                      : No
  132.  
  133. Text #3
  134. ID                          : 7
  135. Format                      : UTF-8
  136. Codec ID                    : S_TEXT/UTF8
  137. Codec ID/Info               : UTF-8 Plain Text
  138. Duration                    : 1 h 24 min
  139. Bit rate                    : 44 b/s
  140. Count of elements           : 843
  141. Stream size                 : 27.9 KiB (0%)
  142. Title                       : ITA - Completi fedeli [SRT]
  143. Language                    : Italian
  144. Default                     : No
  145. Forced                      : No
  146.  
  147. Text #4
  148. ID                          : 8
  149. Format                      : ASS
  150. Codec ID                    : S_TEXT/ASS
  151. Codec ID/Info               : Advanced Sub Station Alpha
  152. Duration                    : 1 h 24 min
  153. Bit rate                    : 76 b/s
  154. Count of elements           : 897
  155. Compression mode            : Lossless
  156. Stream size                 : 47.2 KiB (0%)
  157. Title                       : ITA - Completi fedeli [ASS]
  158. Language                    : Italian
  159. Default                     : No
  160. Forced                      : No
  161.  
  162. Text #5
  163. ID                          : 9
  164. Format                      : UTF-8
  165. Codec ID                    : S_TEXT/UTF8
  166. Codec ID/Info               : UTF-8 Plain Text
  167. Duration                    : 1 h 24 min
  168. Bit rate                    : 40 b/s
  169. Count of elements           : 832
  170. Stream size                 : 25.3 KiB (0%)
  171. Title                       : ENG - Completi fedeli [SRT]
  172. Language                    : English
  173. Default                     : No
  174. Forced                      : No
  175.  
  176. Text #6
  177. ID                          : 10
  178. Format                      : ASS
  179. Codec ID                    : S_TEXT/ASS
  180. Codec ID/Info               : Advanced Sub Station Alpha
  181. Duration                    : 1 h 24 min
  182. Bit rate                    : 70 b/s
  183. Count of elements           : 893
  184. Compression mode            : Lossless
  185. Stream size                 : 43.4 KiB (0%)
  186. Title                       : ENG - Completi fedeli [ASS]
  187. Language                    : English
  188. Default                     : No
  189. Forced                      : No
  190.  
  191. Text #7
  192. ID                          : 11
  193. Format                      : UTF-8
  194. Codec ID                    : S_TEXT/UTF8
  195. Codec ID/Info               : UTF-8 Plain Text
  196. Duration                    : 1 h 10 min
  197. Bit rate                    : 43 b/s
  198. Count of elements           : 676
  199. Stream size                 : 22.4 KiB (0%)
  200. Title                       : ITA da DVD [SRT]
  201. Language                    : Italian
  202. Default                     : No
  203. Forced                      : No
  204.  
  205. Text #8
  206. ID                          : 12
  207. Format                      : UTF-8
  208. Codec ID                    : S_TEXT/UTF8
  209. Codec ID/Info               : UTF-8 Plain Text
  210. Duration                    : 1 h 14 min
  211. Bit rate                    : 39 b/s
  212. Count of elements           : 662
  213. Stream size                 : 21.5 KiB (0%)
  214. Title                       : ENG da DVD [SRT]
  215. Language                    : English
  216. Default                     : No
  217. Forced                      : No
  218.  
  219. Text #9
  220. ID                          : 13
  221. Format                      : UTF-8
  222. Codec ID                    : S_TEXT/UTF8
  223. Codec ID/Info               : UTF-8 Plain Text
  224. Duration                    : 1 h 10 min
  225. Bit rate                    : 37 b/s
  226. Count of elements           : 590
  227. Stream size                 : 19.4 KiB (0%)
  228. Title                       : SPA da DVD [SRT]
  229. Language                    : Spanish
  230. Default                     : No
  231. Forced                      : No
  232.  
  233. Menu
  234. 00:00:00.000                : en:Chapter 01
  235. 00:05:41.383                : en:Chapter 02
  236. 00:10:39.639                : en:Chapter 03
  237. 00:15:09.992                : en:Chapter 04
  238. 00:20:59.758                : en:Chapter 05
  239. 00:25:56.513                : en:Chapter 06
  240. 00:28:01.388                : en:Chapter 07
  241. 00:32:22.941                : en:Chapter 08
  242. 00:36:08.291                : en:Chapter 09
  243. 00:41:28.486                : en:Chapter 10
  244. 00:47:15.875                : en:Chapter 11
  245. 00:50:57.805                : en:Chapter 12
  246. 00:58:08.777                : en:Chapter 13
  247. 01:02:42.217                : en:Chapter 14
  248. 01:10:01.155                : en:Chapter 15
  249. 01:12:37.812                : en:Chapter 16
  250. 01:18:33.751                : en:Chapter 17
  251. 01:21:02.900                : en:Chapter 18
RAW Paste Data
We use cookies for various purposes including analytics. By continuing to use Pastebin, you agree to our use of cookies as described in the Cookies Policy. OK, I Understand
 
Top