daily pastebin goal
7%
SHARE
TWEET

Untitled

a guest Aug 6th, 2015 189 Never
Not a member of Pastebin yet? Sign Up, it unlocks many cool features!
  1. General
  2. Complete name                            : C:\Users\Ivo\Desktop\v.mp4
  3. Format                                   : MPEG-4
  4. Format profile                           : Base Media
  5. Codec ID                                 : isom
  6. File size                                : 850 MiB
  7. Duration                                 : 2h 12mn
  8. Overall bit rate mode                    : Variable
  9. Overall bit rate                         : 894 Kbps
  10. Encoded date                             : UTC 2012-04-03 14:32:13
  11. Tagged date                              : UTC 2014-05-13 16:37:52
  12.  
  13. Video
  14. ID                                       : 1
  15. Format                                   : AVC
  16. Format/Info                              : Advanced Video Codec
  17. Format profile                           : High@L3.1
  18. Format settings, CABAC                   : Yes
  19. Format settings, ReFrames                : 5 frames
  20. Codec ID                                 : avc1
  21. Codec ID/Info                            : Advanced Video Coding
  22. Duration                                 : 2h 12mn
  23. Bit rate                                 : 828 Kbps
  24. Maximum bit rate                         : 4 735 Kbps
  25. Width                                    : 1 280 pixels
  26. Height                                   : 536 pixels
  27. Display aspect ratio                     : 2.40:1
  28. Frame rate mode                          : Constant
  29. Frame rate                               : 23.976 fps
  30. Color space                              : YUV
  31. Chroma subsampling                       : 4:2:0
  32. Bit depth                                : 8 bits
  33. Scan type                                : Progressive
  34. Bits/(Pixel*Frame)                       : 0.050
  35. Stream size                              : 786 MiB (92%)
  36. Writing library                          : x264 core 120 r2164 da19765
  37. Encoding settings                        : cabac=1 / ref=5 / deblock=1:-2:-1 / analyse=0x3:0x113 / me=umh / subme=8 / psy=1 / psy_rd=1.00:0.00 / mixed_ref=1 / me_range=16 / chroma_me=1 / trellis=1 / 8x8dct=1 / cqm=0 / deadzone=21,11 / fast_pskip=1 / chroma_qp_offset=-2 / threads=12 / sliced_threads=0 / nr=0 / decimate=1 / interlaced=0 / bluray_compat=0 / constrained_intra=0 / bframes=3 / b_pyramid=2 / b_adapt=2 / b_bias=0 / direct=3 / weightb=1 / open_gop=0 / weightp=2 / keyint=240 / keyint_min=23 / scenecut=40 / intra_refresh=0 / rc_lookahead=50 / rc=2pass / mbtree=1 / bitrate=828 / ratetol=1.0 / qcomp=0.60 / qpmin=10 / qpmax=51 / qpstep=4 / cplxblur=20.0 / qblur=0.5 / ip_ratio=1.40 / aq=1:1.00
  38. Encoded date                             : UTC 2012-04-03 14:32:13
  39. Tagged date                              : UTC 2012-04-03 14:32:28
  40.  
  41. Audio
  42. ID                                       : 2
  43. Format                                   : AAC
  44. Format/Info                              : Advanced Audio Codec
  45. Format profile                           : HE-AAC / LC
  46. Codec ID                                 : 40
  47. Duration                                 : 2h 12mn
  48. Bit rate mode                            : Variable
  49. Bit rate                                 : 64.0 Kbps
  50. Maximum bit rate                         : 74.6 Kbps
  51. Channel(s)                               : 2 channels
  52. Channel positions                        : Front: L R
  53. Sampling rate                            : 48.0 KHz / 24.0 KHz
  54. Compression mode                         : Lossy
  55. Stream size                              : 60.9 MiB (7%)
  56. Encoded date                             : UTC 2012-04-03 14:32:27
  57. Tagged date                              : UTC 2012-04-03 14:32:28
RAW Paste Data
We use cookies for various purposes including analytics. By continuing to use Pastebin, you agree to our use of cookies as described in the Cookies Policy. OK, I Understand
 
Top