Guest User

x265 video mediainfo

a guest
Sep 30th, 2016
1,055
0
Never
Not a member of Pastebin yet? Sign Up, it unlocks many cool features!
text 3.50 KB | None | 0 0
  1. General
  2. Unique ID : 180675959062595734542836074129620373858 (0x87ECEC89E27BB109A2C8E0DF95629162)
  3.  
  4. Format : Matroska
  5. Format version : Version 2
  6. File size : 250 MiB
  7. Duration : 52 min 44 s
  8. Overall bit rate : 662 kb/s
  9. Encoded date : UTC 2016-09-02 23:55:24
  10. Writing application : mkvmerge v7.8.0 ('River Man') 32bit built on Mar 27 2015 16:18:02
  11. Writing library : libebml v1.3.1 + libmatroska v1.4.2
  12.  
  13. Video
  14. ID : 1
  15. Format : HEVC
  16. Format/Info : High Efficiency Video Coding
  17. Format profile : Main@L3.1@Main
  18. Codec ID : V_MPEGH/ISO/HEVC
  19. Duration : 52 min 44 s
  20. Bit rate : 597 kb/s
  21. Width : 1 280 pixels
  22. Height : 720 pixels
  23. Display aspect ratio : 16:9
  24. Frame rate mode : Constant
  25. Frame rate : 23.976 (24000/1001) FPS
  26. Color space : YUV
  27. Chroma subsampling : 4:2:0
  28. Bit depth : 8 bits
  29. Bits/(Pixel*Frame) : 0.027
  30. Stream size : 225 MiB (90%)
  31. Writing library : x265 1.8+2-55a4a9b920ff:[Windows][GCC 5.2.0][64 bit] 8bit+10bit+12bit
  32. Encoding settings : wpp / ctu=64 / min-cu-size=8 / max-tu-size=32 / tu-intra-depth=1 / tu-inter-depth=1 / me=1 / subme=2 / merange=57 / no-rect / no-amp / max-merge=2 / temporal-mvp / no-early-skip / rdpenalty=0 / no-tskip / no-tskip-fast / strong-intra-smoothing / no-lossless / no-cu-lossless / no-constrained-intra / no-fast-intra / open-gop / no-temporal-layers / interlace=0 / keyint=250 / min-keyint=23 / scenecut=40 / rc-lookahead=20 / lookahead-slices=0 / bframes=4 / bframe-bias=0 / b-adapt=2 / ref=3 / limit-refs=0 / weightp / no-weightb / aq-mode=1 / qg-size=32 / aq-strength=1.00 / cbqpoffs=0 / crqpoffs=0 / rd=3 / psy-rd=0.30 / rdoq-level=0 / psy-rdoq=0.00 / signhide / deblock / sao / no-sao-non-deblock / b-pyramid / cutree / rc=2 / pass / bitrate=596 / qcomp=0.60 / qpmin=0 / qpmax=51 / qpstep=4 / cplxblur=20.0 / qblur=0.5 / ipratio=1.40 / pbratio=1.30
  33. Default : Yes
  34. Forced : No
  35.  
  36. Audio
  37. ID : 2
  38. Format : AAC
  39. Format/Info : Advanced Audio Codec
  40. Format profile : HE-AAC / LC
  41. Codec ID : A_AAC
  42. Duration : 52 min 44 s
  43. Bit rate : 63.8 kb/s
  44. Channel(s) : 2 channels
  45. Channel positions : Front: L R
  46. Sampling rate : 48.0 kHz / 24.0 kHz
  47. Frame rate : 23.438 FPS (1024 spf)
  48. Compression mode : Lossy
  49. Delay relative to video : 31 ms
  50. Stream size : 24.1 MiB (10%)
  51. Default : Yes
  52. Forced : No
Add Comment
Please, Sign In to add comment