Guest User

ffprobe test

a guest
Nov 1st, 2020
31
Never
Not a member of Pastebin yet? Sign Up, it unlocks many cool features!
  1. ffprobe -rtsp_transport tcp -i 'rtsp://something:something@fdsfsdfdf'
  2. ffprobe version 3.4.8-0ubuntu0.2 Copyright (c) 2007-2020 the FFmpeg developers
  3. built with gcc 7 (Ubuntu 7.5.0-3ubuntu1~18.04)
  4. configuration: --prefix=/usr --extra-version=0ubuntu0.2 --toolchain=hardened --libdir=/usr/lib/x86_64-linux-gnu --incdir=/usr/include/x86_64-linux-gnu --enable-gpl --disable-stripping --enable-avresample --enable-avisynth --enable-gnutls --enable-ladspa --enable-libass --enable-libbluray --enable-libbs2b --enable-libcaca --enable-libcdio --enable-libflite --enable-libfontconfig --enable-libfreetype --enable-libfribidi --enable-libgme --enable-libgsm --enable-libmp3lame --enable-libmysofa --enable-libopenjpeg --enable-libopenmpt --enable-libopus --enable-libpulse --enable-librubberband --enable-librsvg --enable-libshine --enable-libsnappy --enable-libsoxr --enable-libspeex --enable-libssh --enable-libtheora --enable-libtwolame --enable-libvorbis --enable-libvpx --enable-libwavpack --enable-libwebp --enable-libx265 --enable-libxml2 --enable-libxvid --enable-libzmq --enable-libzvbi --enable-omx --enable-openal --enable-opengl --enable-sdl2 --enable-libdc1394 --enable-libdrm --enable-libiec61883 --enable-chromaprint --enable-frei0r --enable-libopencv --enable-libx264 --enable-shared
  5. libavutil 55. 78.100 / 55. 78.100
  6. libavcodec 57.107.100 / 57.107.100
  7. libavformat 57. 83.100 / 57. 83.100
  8. libavdevice 57. 10.100 / 57. 10.100
  9. libavfilter 6.107.100 / 6.107.100
  10. libavresample 3. 7. 0 / 3. 7. 0
  11. libswscale 4. 8.100 / 4. 8.100
  12. libswresample 2. 9.100 / 2. 9.100
  13. libpostproc 54. 7.100 / 54. 7.100
  14. [rtsp @ 0x557d49228140] DTS discontinuity in stream 1: packet 10 with DTS -544696, packet 11 with DTS 1502609808
  15. Input #0, rtsp, from 'rtsp://something:something@fdsfsdfdf':
  16. Metadata:
  17. title : RTSP server
  18. Duration: N/A, start: 0.000000, bitrate: N/A
  19. Stream #0:0: Video: mpeg4 (Simple Profile), yuv420p, 640x480 [SAR 1:1 DAR 4:3], 30 tbr, 30k tbn, 1k tbc
  20. Stream #0:1: Audio: amr_nb, 8000 Hz, mono, flt
  21.  
RAW Paste Data