SHARE
TWEET

Untitled

a guest Nov 7th, 2019 95 Never
Not a member of Pastebin yet? Sign Up, it unlocks many cool features!
  1. General
  2. Unique ID                                : 324944521603124670564717837414403960096 (0xF47609D755CF3308E3D41E695F186D20)
  3. Complete name                            : Blinded.by.the.Light.2019.1080p.BluRay.REMUX.AVC.Atmos-EPSiLON.mkv
  4. Format                                   : Matroska
  5. Format version                           : Version 4
  6. File size                                : 21.3 GiB
  7. Duration                                 : 1 h 57 min
  8. Overall bit rate mode                    : Variable
  9. Overall bit rate                         : 25.9 Mb/s
  10. Movie name                               : Blinded by the Light (2019)
  11. Encoded date                             : UTC 2019-11-07 18:21:56
  12. Writing application                      : mkvmerge v39.0.0 ('In The Waiting Line') 64-bit
  13. Writing library                          : libebml v1.3.9 + libmatroska v1.5.2
  14. IMDB                                     : tt8266310
  15. TMDB                                     : movie/534259
  16.  
  17. Video
  18. ID                                       : 1
  19. Format                                   : AVC
  20. Format/Info                              : Advanced Video Codec
  21. Format profile                           : High@L4.1
  22. Format settings                          : CABAC / 4 Ref Frames
  23. Format settings, CABAC                   : Yes
  24. Format settings, Reference frames        : 4 frames
  25. Codec ID                                 : V_MPEG4/ISO/AVC
  26. Duration                                 : 1 h 57 min
  27. Bit rate mode                            : Variable
  28. Bit rate                                 : 21.6 Mb/s
  29. Maximum bit rate                         : 24.0 Mb/s
  30. Width                                    : 1 920 pixels
  31. Height                                   : 1 080 pixels
  32. Display aspect ratio                     : 16:9
  33. Frame rate mode                          : Constant
  34. Frame rate                               : 23.976 (24000/1001) FPS
  35. Color space                              : YUV
  36. Chroma subsampling                       : 4:2:0
  37. Bit depth                                : 8 bits
  38. Scan type                                : Progressive
  39. Bits/(Pixel*Frame)                       : 0.434
  40. Stream size                              : 17.8 GiB (83%)
  41. Title                                    : MPEG-4 AVC Video / 21875 kbps / 1080p / 23.976 fps / 16:9 / High Profile 4.1
  42. Language                                 : English
  43. Default                                  : Yes
  44. Forced                                   : No
  45.  
  46. Audio #1
  47. ID                                       : 2
  48. Format                                   : MLP FBA 16-ch
  49. Format/Info                              : Meridian Lossless Packing FBA with 16-channel presentation
  50. Commercial name                          : Dolby TrueHD with Dolby Atmos
  51. Codec ID                                 : A_TRUEHD
  52. Duration                                 : 1 h 57 min
  53. Bit rate mode                            : Variable
  54. Bit rate                                 : 3 703 kb/s
  55. Maximum bit rate                         : 5 883 kb/s
  56. Channel(s)                               : 8 channels
  57. Channel layout                           : L R C LFE Ls Rs Lb Rb
  58. Sampling rate                            : 48.0 kHz
  59. Frame rate                               : 1 200.000 FPS (40 SPF)
  60. Compression mode                         : Lossless
  61. Stream size                              : 3.05 GiB (14%)
  62. Title                                    : Dolby TrueHD/Atmos Audio / 7.1 / 48 kHz / 3703 kbps / 24-bit
  63. Language                                 : English
  64. Default                                  : Yes
  65. Forced                                   : No
  66. Number of dynamic objects                : 15
  67. Bed channel count                        : 1 channel
  68. Bed channel configuration                : LFE
  69.  
  70. Audio #2
  71. ID                                       : 3
  72. Format                                   : AC-3
  73. Format/Info                              : Audio Coding 3
  74. Commercial name                          : Dolby Digital
  75. Codec ID                                 : A_AC3
  76. Duration                                 : 1 h 57 min
  77. Bit rate mode                            : Constant
  78. Bit rate                                 : 448 kb/s
  79. Channel(s)                               : 6 channels
  80. Channel layout                           : L R C LFE Ls Rs
  81. Sampling rate                            : 48.0 kHz
  82. Frame rate                               : 31.250 FPS (1536 SPF)
  83. Compression mode                         : Lossy
  84. Stream size                              : 377 MiB (2%)
  85. Title                                    : Compatibility Track / Dolby Digital Audio / 5.1-EX / 48 kHz / 448 kbps
  86. Language                                 : English
  87. Service kind                             : Complete Main
  88. Default                                  : No
  89. Forced                                   : No
  90.  
  91. Text #1
  92. ID                                       : 4
  93. Format                                   : PGS
  94. Codec ID                                 : S_HDMV/PGS
  95. Codec ID/Info                            : Picture based subtitle format used on BDs/HD-DVDs
  96. Duration                                 : 1 h 50 min
  97. Bit rate                                 : 36.7 kb/s
  98. Count of elements                        : 3272
  99. Stream size                              : 28.9 MiB (0%)
  100. Title                                    : SDH
  101. Language                                 : English
  102. Default                                  : No
  103. Forced                                   : No
  104.  
  105. Text #2
  106. ID                                       : 5
  107. Format                                   : PGS
  108. Codec ID                                 : S_HDMV/PGS
  109. Codec ID/Info                            : Picture based subtitle format used on BDs/HD-DVDs
  110. Duration                                 : 1 h 56 min
  111. Bit rate                                 : 27.3 kb/s
  112. Count of elements                        : 2992
  113. Stream size                              : 22.9 MiB (0%)
  114. Language                                 : French
  115. Default                                  : No
  116. Forced                                   : No
  117.  
  118. Text #3
  119. ID                                       : 6
  120. Format                                   : PGS
  121. Codec ID                                 : S_HDMV/PGS
  122. Codec ID/Info                            : Picture based subtitle format used on BDs/HD-DVDs
  123. Duration                                 : 1 h 56 min
  124. Bit rate                                 : 30.3 kb/s
  125. Count of elements                        : 2674
  126. Stream size                              : 25.3 MiB (0%)
  127. Title                                    : Brazilian
  128. Language                                 : Portuguese
  129. Default                                  : No
  130. Forced                                   : No
  131.  
  132. Text #4
  133. ID                                       : 7
  134. Format                                   : PGS
  135. Codec ID                                 : S_HDMV/PGS
  136. Codec ID/Info                            : Picture based subtitle format used on BDs/HD-DVDs
  137. Duration                                 : 1 h 51 min
  138. Bit rate                                 : 33.1 kb/s
  139. Count of elements                        : 2690
  140. Stream size                              : 26.4 MiB (0%)
  141. Title                                    : Latin American
  142. Language                                 : Spanish
  143. Default                                  : No
  144. Forced                                   : No
  145.  
  146. Menu
  147. 00:00:00.000                             : en:Chapter 1
  148. 00:11:10.211                             : en:Chapter 2
  149. 00:20:03.661                             : en:Chapter 3
  150. 00:30:13.270                             : en:Chapter 4
  151. 00:39:49.596                             : en:Chapter 5
  152. 00:48:52.054                             : en:Chapter 6
  153. 00:58:27.212                             : en:Chapter 7
  154. 01:08:39.490                             : en:Chapter 8
  155. 01:19:01.820                             : en:Chapter 9
  156. 01:28:16.791                             : en:Chapter 10
  157. 01:40:07.043                             : en:Chapter 11
  158. 01:51:37.399                             : en:Chapter 12
RAW Paste Data
We use cookies for various purposes including analytics. By continuing to use Pastebin, you agree to our use of cookies as described in the Cookies Policy. OK, I Understand
Top