SHARE
TWEET

Untitled

a guest Feb 27th, 2020 73 Never
Not a member of Pastebin yet? Sign Up, it unlocks many cool features!
  1. Общее
  2. Уникальный идентификатор                 : 1891227679816734373666196378746953176 (0x16C3CB9458C0C31B50D07BC25511DD8)
  3. Полное имя                               : Assassin's Creed Lineage (2009) BDrip (1920x816) HEVC.mkv
  4. Формат                                   : Matroska
  5. Версия формата                           : Version 4 / Version 2
  6. Размер файла                             : 2,43 Гбайт
  7. Продолжительность                        : 35 м. 51 с.
  8. Общий поток                              : 9687 Кбит/сек
  9. Программа кодирования                    : XviD4PSP 8.0.91
  10. Библиотека кодирования                   : Lavf58.20.100
  11. ErrorDetectionType                       : Per level 1
  12. ENCODING_INFO                            : MATROSKA,WEBM > MKV 1920x1080 HEVC 10-bit
  13.  
  14. Видео
  15. Идентификатор                            : 1
  16. Формат                                   : HEVC
  17. Формат/Информация                        : High Efficiency Video Coding
  18. Профиль формата                          : Main 10@L4.1@High
  19. Идентификатор кодека                     : V_MPEGH/ISO/HEVC
  20. Продолжительность                        : 35 м. 51 с.
  21. Битрейт                                  : 8726 Кбит/сек
  22. Ширина                                   : 1920 пикселей
  23. Высота                                   : 816 пикселей
  24. Соотношение сторон                       : 2,35:1
  25. Режим частоты кадров                     : Постоянный
  26. Частота кадров                           : 23,976 (24000/1001) кадра/сек
  27. Цветовое пространство                    : YUV
  28. Субдискретизация насыщенности            : 4:2:0
  29. Битовая глубина                          : 10 бит
  30. Бит/(Пиксели*Кадры)                      : 0.232
  31. Размер потока                            : 2,19 Гбайт (90%)
  32. Язык                                     : English
  33. Default                                  : Да
  34. Forced                                   : Нет
  35. Цветовой диапазон                        : Limited
  36. Основные цвета                           : BT.709
  37. Характеристики трансфера                 : BT.709
  38. Коэффициенты матрицы                     : BT.709
  39. ENCODING_INFO                            : H264 > HEVC NVENC VBR 9000kbps HQ
  40.  
  41. Аудио #1
  42. Идентификатор                            : 2
  43. Формат                                   : AC-3
  44. Формат/Информация                        : Audio Coding 3
  45. Параметр Endianness формата              : Big
  46. Идентификатор кодека                     : A_AC3
  47. Продолжительность                        : 35 м. 51 с.
  48. Вид битрейта                             : Постоянный
  49. Битрейт                                  : 192 Кбит/сек
  50. Каналы                                   : 2 канала
  51. Расположение каналов                     : Front: L R
  52. Частота                                  : 48,0 КГц
  53. Частота кадров                           : 31,250 кадров/сек (1536 SPF)
  54. Битовая глубина                          : 16 бит
  55. Метод сжатия                             : С потерями
  56. Размер потока                            : 49,2 Мбайт (2%)
  57. Заголовок                                : MVO "Игромания"
  58. Язык                                     : Russian
  59. ServiceKind/String                       : Complete Main
  60. Default                                  : Да
  61. Forced                                   : Нет
  62. ENCODING_INFO                            : AAC-LC > AC3 CBR 192kbps
  63.  
  64. Аудио #2
  65. Идентификатор                            : 3
  66. Формат                                   : AC-3
  67. Формат/Информация                        : Audio Coding 3
  68. Параметр Endianness формата              : Big
  69. Идентификатор кодека                     : A_AC3
  70. Продолжительность                        : 35 м. 51 с.
  71. Вид битрейта                             : Постоянный
  72. Битрейт                                  : 192 Кбит/сек
  73. Каналы                                   : 2 канала
  74. Расположение каналов                     : Front: L R
  75. Частота                                  : 48,0 КГц
  76. Частота кадров                           : 31,250 кадров/сек (1536 SPF)
  77. Битовая глубина                          : 16 бит
  78. Метод сжатия                             : С потерями
  79. Размер потока                            : 49,2 Мбайт (2%)
  80. Заголовок                                : MVO "StopGame"
  81. Язык                                     : Russian
  82. ServiceKind/String                       : Complete Main
  83. Default                                  : Нет
  84. Forced                                   : Нет
  85. ENCODING_INFO                            : MP3 > AC3 CBR 192kbps
  86.  
  87. Аудио #3
  88. Идентификатор                            : 4
  89. Формат                                   : AC-3
  90. Формат/Информация                        : Audio Coding 3
  91. Параметр Endianness формата              : Big
  92. Идентификатор кодека                     : A_AC3
  93. Продолжительность                        : 35 м. 51 с.
  94. Вид битрейта                             : Постоянный
  95. Битрейт                                  : 192 Кбит/сек
  96. Каналы                                   : 2 канала
  97. Расположение каналов                     : Front: L R
  98. Частота                                  : 44,1 КГц
  99. Частота кадров                           : 28,711 кадров/сек (1536 SPF)
  100. Битовая глубина                          : 16 бит
  101. Метод сжатия                             : С потерями
  102. Размер потока                            : 49,2 Мбайт (2%)
  103. Заголовок                                : MVO "Акелла"
  104. Язык                                     : Russian
  105. ServiceKind/String                       : Complete Main
  106. Default                                  : Нет
  107. Forced                                   : Нет
  108. ENCODING_INFO                            : AAC-LC > AC3 CBR 192kbps
  109.  
  110. Аудио #4
  111. Идентификатор                            : 5
  112. Формат                                   : AC-3
  113. Формат/Информация                        : Audio Coding 3
  114. Параметр Endianness формата              : Big
  115. Идентификатор кодека                     : A_AC3
  116. Продолжительность                        : 35 м. 51 с.
  117. Вид битрейта                             : Постоянный
  118. Битрейт                                  : 192 Кбит/сек
  119. Каналы                                   : 2 канала
  120. Расположение каналов                     : Front: L R
  121. Частота                                  : 48,0 КГц
  122. Частота кадров                           : 31,250 кадров/сек (1536 SPF)
  123. Битовая глубина                          : 16 бит
  124. Метод сжатия                             : С потерями
  125. Размер потока                            : 49,2 Мбайт (2%)
  126. Заголовок                                : Original
  127. Язык                                     : English
  128. ServiceKind/String                       : Complete Main
  129. Default                                  : Нет
  130. Forced                                   : Нет
  131. ENCODING_INFO                            : DTS-HD MA > AC3 CBR 192kbps
  132.  
  133. Текст #1
  134. Идентификатор                            : 6
  135. Формат                                   : UTF-8
  136. Идентификатор кодека                     : S_TEXT/UTF8
  137. Идентификатор кодека/Информация          : UTF-8 Plain Text
  138. Заголовок                                : Краткие (надписи, непереведенные участки)
  139. Язык                                     : Russian
  140. Default                                  : Да
  141. Forced                                   : Да
  142. ENCODING_INFO                            : SUBRIP > COPY Быстрое
  143.  
  144. Текст #2
  145. Идентификатор                            : 7
  146. Формат                                   : UTF-8
  147. Идентификатор кодека                     : S_TEXT/UTF8
  148. Идентификатор кодека/Информация          : UTF-8 Plain Text
  149. Заголовок                                : Полные
  150. Язык                                     : Russian
  151. Default                                  : Нет
  152. Forced                                   : Нет
  153. ENCODING_INFO                            : SUBRIP > COPY Быстрое
  154.  
  155. Меню
  156. 00:00:00.000                             : :01
  157. 00:05:33.250                             : :02
  158. 00:10:33.466                             : :03
  159. 00:16:07.633                             : :04
  160. 00:21:35.169                             : :05
  161. 00:29:01.698                             : :06
RAW Paste Data
We use cookies for various purposes including analytics. By continuing to use Pastebin, you agree to our use of cookies as described in the Cookies Policy. OK, I Understand
Top