HYBRID_BEING

[SoftLife] Hundred - 03 [D072C913].mkv

Jul 11th, 2016
81
Never
Not a member of Pastebin yet? Sign Up, it unlocks many cool features!
  1. General
  2. Unique ID : 246800531400961605931621161638219461262 (0xB9AC0DA9C28429A182FF67E78BF7B28E)
  3. Complete name : [SoftLife] Hundred - 03 [D072C913].mkv
  4. Format : Matroska
  5. Format version : Version 4 / Version 2
  6. File size : 475 MiB
  7. Duration : 24mn 14s
  8. Overall bit rate : 2 738 Kbps
  9. Encoded date : UTC 2016-05-27 21:25:32
  10. Writing application : mkvmerge v9.0.1 ('Obstacles') 64bit
  11. Writing library : libebml v1.3.3 + libmatroska v1.4.4
  12. Attachments : 5221.ttf / AdobeGothicStd-Bold.otf / cgtr45w.ttf / cgtr65w.ttf / DANIELBLACK_0.TTF / Insanibc.ttf / KozMinPro-Bold_0.otf / KozMinPro-Heavy.otf / KozMinPro-Medium.otf / Perspective Sans Bold Italic.ttf
  13.  
  14. Video
  15. ID : 2
  16. Format : AVC
  17. Format/Info : Advanced Video Codec
  18. Format profile : High@L4.1
  19. Format settings, CABAC : Yes
  20. Format settings, ReFrames : 4 frames
  21. Codec ID : V_MPEG4/ISO/AVC
  22. Duration : 24mn 14s
  23. Bit rate : 2 455 Kbps
  24. Width : 1 280 pixels
  25. Height : 720 pixels
  26. Display aspect ratio : 16:9
  27. Frame rate mode : Constant
  28. Frame rate : 23.976 (24000/1001) fps
  29. Color space : YUV
  30. Chroma subsampling : 4:2:0
  31. Bit depth : 8 bits
  32. Scan type : Progressive
  33. Bits/(Pixel*Frame) : 0.111
  34. Stream size : 426 MiB (90%)
  35. Writing library : x264 core 129 r2245+729M 1a52e03
  36. Encoding settings : cabac=1 / ref=4 / deblock=1:1:-1 / analyse=0x3:0x113 / me=umh / subme=9 / psy=1 / fade_compensate=0.00 / psy_rd=1.00:0.00 / mixed_ref=1 / me_range=24 / chroma_me=1 / trellis=2 / 8x8dct=1 / cqm=0 / deadzone=21,11 / fast_pskip=1 / chroma_qp_offset=-2 / threads=8 / lookahead_threads=1 / sliced_threads=0 / nr=0 / decimate=1 / interlaced=0 / bluray_compat=0 / constrained_intra=0 / fgo=0 / bframes=9 / b_pyramid=2 / b_adapt=2 / b_bias=0 / direct=1 / weightb=1 / open_gop=0 / weightp=2 / keyint=240 / keyint_min=24 / scenecut=40 / intra_refresh=0 / rc=crf / mbtree=0 / crf=17.5 / qcomp=0.72 / qpmin=0 / qpmax=69 / qpstep=4 / ip_ratio=1.40 / pb_ratio=1.30 / aq=1:0.85
  37. Default : Yes
  38. Forced : No
  39. Color range : Limited
  40. Color primaries : BT.709
  41. Transfer characteristics : BT.709
  42. Matrix coefficients : BT.709
  43.  
  44. Audio
  45. ID : 3
  46. Format : AAC
  47. Format/Info : Advanced Audio Codec
  48. Format profile : LC
  49. Codec ID : A_AAC
  50. Duration : 24mn 14s
  51. Bit rate : 192 Kbps
  52. Channel(s) : 2 channels
  53. Channel positions : Front: L R
  54. Sampling rate : 48.0 KHz
  55. Frame rate : 46.875 fps (1024 spf)
  56. Compression mode : Lossy
  57. Stream size : 33.3 MiB (7%)
  58. Language : Japanese
  59. Default : Yes
  60. Forced : No
  61.  
  62. Text
  63. ID : 1
  64. Format : ASS
  65. Codec ID : S_TEXT/ASS
  66. Codec ID/Info : Advanced Sub Station Alpha
  67. Duration : 24mn 5s
  68. Bit rate : 153 bps
  69. Count of elements : 393
  70. Compression mode : Lossless
  71. Stream size : 27.1 KiB (0%)
  72. Language : English
  73. Default : Yes
  74. Forced : No
RAW Paste Data