SHARE
TWEET

Untitled

a guest Sep 16th, 2012 20 Never
Not a member of Pastebin yet? Sign Up, it unlocks many cool features!
  1. General
  2. Complete name                            : C:\Users\Flyer\Desktop\Hagure Yuusha no Estetica - 07.mp4
  3. Format                                   : MPEG-4
  4. Format profile                           : Base Media
  5. Codec ID                                 : isom
  6. File size                                : 73.6 MiB
  7. Duration                                 : 23mn 51s
  8. Overall bit rate mode                    : Variable
  9. Overall bit rate                         : 431 Kbps
  10. Encoded date                             : UTC 2012-09-16 12:02:10
  11. Tagged date                              : UTC 2012-09-16 12:02:10
  12.  
  13. Video
  14. ID                                       : 1
  15. Format                                   : AVC
  16. Format/Info                              : Advanced Video Codec
  17. Format profile                           : Main@L1.3
  18. Format settings, CABAC                   : Yes
  19. Format settings, ReFrames                : 2 frames
  20. Codec ID                                 : avc1
  21. Codec ID/Info                            : Advanced Video Coding
  22. Duration                                 : 23mn 51s
  23. Bit rate                                 : 303 Kbps
  24. Maximum bit rate                         : 1 750 Kbps
  25. Width                                    : 480 pixels
  26. Height                                   : 272 pixels
  27. Display aspect ratio                     : 16:9
  28. Frame rate mode                          : Constant
  29. Frame rate                               : 29.970 fps
  30. Color space                              : YUV
  31. Chroma subsampling                       : 4:2:0
  32. Bit depth                                : 8 bits
  33. Scan type                                : Progressive
  34. Bits/(Pixel*Frame)                       : 0.077
  35. Stream size                              : 51.7 MiB (70%)
  36. Title                                    : MtiDywG.264 - Imported with GPAC 0.5.1-DEV-rev4147
  37. Writing library                          : x264 core 128
  38. Encoding settings                        : cabac=1 / ref=2 / deblock=1:0:0 / analyse=0x1:0x111 / me=umh / subme=7 / psy=1 / psy_rd=1.00:0.00 / mixed_ref=1 / me_range=16 / chroma_me=1 / trellis=1 / 8x8dct=0 / cqm=0 / deadzone=21,11 / fast_pskip=1 / chroma_qp_offset=-2 / threads=18 / lookahead_threads=3 / sliced_threads=0 / nr=0 / decimate=1 / interlaced=0 / bluray_compat=0 / constrained_intra=0 / bframes=0 / weightp=2 / keyint=250 / keyint_min=25 / scenecut=40 / intra_refresh=0 / rc_lookahead=60 / rc=crf / mbtree=1 / crf=20.0 / qcomp=0.60 / qpmin=0 / qpmax=69 / qpstep=4 / ip_ratio=1.40 / aq=1:1.00
  39. Encoded date                             : UTC 2012-09-16 12:02:10
  40. Tagged date                              : UTC 2012-09-16 12:02:13
  41.  
  42. Audio
  43. ID                                       : 2
  44. Format                                   : AAC
  45. Format/Info                              : Advanced Audio Codec
  46. Format profile                           : LC
  47. Codec ID                                 : 40
  48. Duration                                 : 23mn 51s
  49. Bit rate mode                            : Variable
  50. Bit rate                                 : 126 Kbps
  51. Maximum bit rate                         : 269 Kbps
  52. Channel(s)                               : 2 channels
  53. Channel positions                        : Front: L R
  54. Sampling rate                            : 44.1 KHz
  55. Compression mode                         : Lossy
  56. Stream size                              : 21.4 MiB (29%)
  57. Title                                    : MtiDywG.aac - Imported with GPAC 0.5.1-DEV-rev4147
  58. Encoded date                             : UTC 2012-09-16 12:02:12
  59. Tagged date                              : UTC 2012-09-16 12:02:13
RAW Paste Data
We use cookies for various purposes including analytics. By continuing to use Pastebin, you agree to our use of cookies as described in the Cookies Policy. OK, I Understand
 
Top