SHARE
TWEET

Extremely Wicked Shockingly Evil and Vile WEB-DL 720p

dirtyharrys May 5th, 2019 77 Never
Not a member of Pastebin yet? Sign Up, it unlocks many cool features!
  1. General
  2. Unique ID                   : 248486398748108094475370259213058015142 (0xBAF0BD573983F1592FB82FAB866F7FA6)
  3. Complete name               : E:\V0VCRVdTaG9ja2luZ2x5RXZpbGFuZFZpbGU.mkv
  4. Format                      : Matroska
  5. Format version              : Version 4
  6. File size                   : 1.52 GiB
  7. Duration                    : 1 h 49 min
  8. Overall bit rate mode       : Variable
  9. Overall bit rate            : 1 985 kb/s
  10. Movie name                  : Extremely Wicked Shockingly Evil and Vile WEB-DL / Extremely Wicked Shockingly Evil and Vile WEB-DL
  11. Encoded date                : UTC 2019-05-04 08:25:18
  12. Writing application         : mkvmerge v30.1.0 ('Forever And More') 32-bit
  13. Writing library             : libebml v1.3.6 + libmatroska v1.4.9
  14. Copyright                   : Movies HDs 2019
  15. ARTIST                      : HarshLearner
  16.  
  17. Video
  18. ID                          : 1
  19. Format                      : AVC
  20. Format/Info                 : Advanced Video Codec
  21. Format profile              : Main@L3.1
  22. Format settings             : CABAC / 3 Ref Frames
  23. Format settings, CABAC      : Yes
  24. Format settings, ReFrames   : 3 frames
  25. Codec ID                    : V_MPEG4/ISO/AVC
  26. Duration                    : 1 h 49 min
  27. Bit rate mode               : Variable
  28. Bit rate                    : 1 540 kb/s
  29. Maximum bit rate            : 2 310 kb/s
  30. Width                       : 1 280 pixels
  31. Height                      : 720 pixels
  32. Display aspect ratio        : 16:9
  33. Frame rate mode             : Constant
  34. Frame rate                  : 23.976 (24000/1001) FPS
  35. Color space                 : YUV
  36. Chroma subsampling          : 4:2:0
  37. Bit depth                   : 8 bits
  38. Scan type                   : Progressive
  39. Bits/(Pixel*Frame)          : 0.070
  40. Stream size                 : 1.18 GiB (77%)
  41. Title                       : Extremely Wicked Shockingly Evil and Vile
  42. Writing library             : x264 core 148 r2715 7e75228
  43. Default                     : Yes
  44. Forced                      : No
  45.  
  46. Audio
  47. ID                          : 2
  48. Format                      : AC-3
  49. Format/Info                 : Audio Coding 3
  50. Commercial name             : Dolby Digital
  51. Codec ID                    : A_AC3
  52. Duration                    : 1 h 49 min
  53. Bit rate mode               : Constant
  54. Bit rate                    : 448 kb/s
  55. Channel(s)                  : 6 channels
  56. Channel layout              : L R C LFE Ls Rs
  57. Sampling rate               : 48.0 kHz
  58. Frame rate                  : 31.250 FPS (1536 SPF)
  59. Bit depth                   : 16 bits
  60. Compression mode            : Lossy
  61. Stream size                 : 352 MiB (23%)
  62. Language                    : English
  63. Service kind                : Complete Main
  64. Default                     : Yes
  65. Forced                      : No
  66.  
  67. Text #1
  68. ID                          : 3
  69. Format                      : UTF-8
  70. Codec ID                    : S_TEXT/UTF8
  71. Codec ID/Info               : UTF-8 Plain Text
  72. Duration                    : 1 h 43 min
  73. Bit rate                    : 76 b/s
  74. Count of elements           : 1691
  75. Stream size                 : 58.2 KiB (0%)
  76. Language                    : English
  77. Default                     : No
  78. Forced                      : No
  79.  
  80. Text #2
  81. ID                          : 4
  82. Format                      : UTF-8
  83. Codec ID                    : S_TEXT/UTF8
  84. Codec ID/Info               : UTF-8 Plain Text
  85. Duration                    : 1 h 44 min
  86. Bit rate                    : 80 b/s
  87. Count of elements           : 1831
  88. Stream size                 : 61.8 KiB (0%)
  89. Title                       : SDH
  90. Language                    : English
  91. Default                     : No
  92. Forced                      : No
  93.  
  94. Text #3
  95. ID                          : 5
  96. Format                      : UTF-8
  97. Codec ID                    : S_TEXT/UTF8
  98. Codec ID/Info               : UTF-8 Plain Text
  99. Duration                    : 1 h 45 min
  100. Bit rate                    : 72 b/s
  101. Count of elements           : 1654
  102. Stream size                 : 56.2 KiB (0%)
  103. Language                    : Spanish
  104. Default                     : Yes
  105. Forced                      : Yes
RAW Paste Data
We use cookies for various purposes including analytics. By continuing to use Pastebin, you agree to our use of cookies as described in the Cookies Policy. OK, I Understand
 
Top