SHARE
TWEET

Captain Marvel BluRay HEVC

dirtyharrys Jul 14th, 2019 79 Never
Not a member of Pastebin yet? Sign Up, it unlocks many cool features!
  1. General
  2. Unique ID                   : 87487676240476256563917682185139885410 (0x41D18377988E1D80D6E4960572E39562)
  3. Complete name               : E:\Captain.Marvel.2019.BluRay.1080p.HEVC.x265\Captain.Marvel.2019.BluRay.1080p.HEVC.x265..mkv
  4. Format                      : Matroska
  5. Format version              : Version 4
  6. File size                   : 7.11 GiB
  7. Duration                    : 2 h 3 min
  8. Overall bit rate            : 8 223 kb/s
  9. Movie name                  : Captain Marvel BluRay / Captain MarvelBluRay
  10. Encoded date                : UTC 2019-07-14 07:09:45
  11. Writing application         : mkvmerge v30.1.0 ('Forever And More') 32-bit
  12. Writing library             : libebml v1.3.6 + libmatroska v1.4.9
  13. Copyright                   : Movies HDs 2019
  14. ARTIST                      : HarshLearner
  15.  
  16. Video
  17. ID                          : 1
  18. Format                      : HEVC
  19. Format/Info                 : High Efficiency Video Coding
  20. Format profile              : Main 10@L4.1@High
  21. Codec ID                    : V_MPEGH/ISO/HEVC
  22. Duration                    : 2 h 3 min
  23. Bit rate                    : 6 921 kb/s
  24. Width                       : 1 920 pixels
  25. Height                      : 800 pixels
  26. Display aspect ratio        : 2.40:1
  27. Frame rate mode             : Constant
  28. Frame rate                  : 23.976 (24000/1001) FPS
  29. Color space                 : YUV
  30. Chroma subsampling          : 4:2:0
  31. Bit depth                   : 10 bits
  32. Bits/(Pixel*Frame)          : 0.188
  33. Stream size                 : 5.98 GiB (84%)
  34. Title                       : Captain Marvel
  35. Language                    : English
  36. Default                     : Yes
  37. Forced                      : No
  38. Color range                 : Limited
  39. Color primaries             : BT.709
  40. Transfer characteristics    : BT.709
  41. Matrix coefficients         : BT.709
  42.  
  43. Audio #1
  44. ID                          : 2
  45. Format                      : AC-3
  46. Format/Info                 : Audio Coding 3
  47. Commercial name             : Dolby Digital
  48. Codec ID                    : A_AC3
  49. Duration                    : 2 h 3 min
  50. Bit rate mode               : Constant
  51. Bit rate                    : 640 kb/s
  52. Channel(s)                  : 6 channels
  53. Channel layout              : L R C LFE Ls Rs
  54. Sampling rate               : 48.0 kHz
  55. Frame rate                  : 31.250 FPS (1536 SPF)
  56. Bit depth                   : 16 bits
  57. Compression mode            : Lossy
  58. Stream size                 : 566 MiB (8%)
  59. Language                    : English
  60. Service kind                : Complete Main
  61. Default                     : No
  62. Forced                      : No
  63.  
  64. Audio #2
  65. ID                          : 3
  66. Format                      : AC-3
  67. Format/Info                 : Audio Coding 3
  68. Commercial name             : Dolby Digital
  69. Codec ID                    : A_AC3
  70. Duration                    : 2 h 3 min
  71. Bit rate mode               : Constant
  72. Bit rate                    : 640 kb/s
  73. Channel(s)                  : 6 channels
  74. Channel layout              : L R C LFE Ls Rs
  75. Sampling rate               : 48.0 kHz
  76. Frame rate                  : 31.250 FPS (1536 SPF)
  77. Bit depth                   : 16 bits
  78. Compression mode            : Lossy
  79. Stream size                 : 566 MiB (8%)
  80. Language                    : Spanish
  81. Service kind                : Complete Main
  82. Default                     : Yes
  83. Forced                      : Yes
  84.  
  85. Text #1
  86. ID                          : 4
  87. Format                      : PGS
  88. Muxing mode                 : zlib
  89. Codec ID                    : S_HDMV/PGS
  90. Codec ID/Info               : Picture based subtitle format used on BDs/HD-DVDs
  91. Duration                    : 2 h 2 min
  92. Bit rate                    : 33.1 kb/s
  93. Count of elements           : 3330
  94. Stream size                 : 29.0 MiB (0%)
  95. Language                    : English
  96. Default                     : No
  97. Forced                      : No
  98.  
  99. Text #2
  100. ID                          : 5
  101. Format                      : PGS
  102. Muxing mode                 : zlib
  103. Codec ID                    : S_HDMV/PGS
  104. Codec ID/Info               : Picture based subtitle format used on BDs/HD-DVDs
  105. Duration                    : 2 h 2 min
  106. Bit rate                    : 28.3 kb/s
  107. Count of elements           : 2614
  108. Stream size                 : 24.7 MiB (0%)
  109. Language                    : Spanish
  110. Default                     : No
  111. Forced                      : No
  112.  
  113. Text #3
  114. ID                          : 6
  115. Format                      : PGS
  116. Muxing mode                 : zlib
  117. Codec ID                    : S_HDMV/PGS
  118. Codec ID/Info               : Picture based subtitle format used on BDs/HD-DVDs
  119. Duration                    : 1 h 55 min
  120. Bit rate                    : 466 b/s
  121. Count of elements           : 32
  122. Stream size                 : 394 KiB (0%)
  123. Language                    : Spanish
  124. Default                     : No
  125. Forced                      : No
  126.  
  127. Text #4
  128. ID                          : 7
  129. Format                      : UTF-8
  130. Codec ID                    : S_TEXT/UTF8
  131. Codec ID/Info               : UTF-8 Plain Text
  132. Duration                    : 1 h 53 min
  133. Bit rate                    : 46 b/s
  134. Count of elements           : 1435
  135. Stream size                 : 39.1 KiB (0%)
  136. Language                    : English
  137. Default                     : No
  138. Forced                      : No
  139.  
  140. Text #5
  141. ID                          : 8
  142. Format                      : UTF-8
  143. Codec ID                    : S_TEXT/UTF8
  144. Codec ID/Info               : UTF-8 Plain Text
  145. Duration                    : 2 h 2 min
  146. Bit rate                    : 45 b/s
  147. Count of elements           : 1307
  148. Stream size                 : 40.7 KiB (0%)
  149. Language                    : Spanish
  150. Default                     : Yes
  151. Forced                      : Yes
  152.  
  153. Text #6
  154. ID                          : 9
  155. Format                      : UTF-8
  156. Codec ID                    : S_TEXT/UTF8
  157. Codec ID/Info               : UTF-8 Plain Text
  158. Duration                    : 1 h 55 min
  159. Bit rate                    : 0 b/s
  160. Count of elements           : 16
  161. Stream size                 : 535 Bytes (0%)
  162. Language                    : Spanish
  163. Default                     : No
  164. Forced                      : No
  165.  
  166. Menu
  167. 00:00:00.000                : :Chapter 01
  168. 00:06:52.120                : :Chapter 02
  169. 00:14:07.888                : :Chapter 03
  170. 00:23:18.271                : :Chapter 04
  171. 00:29:38.026                : :Chapter 05
  172. 00:35:07.772                : :Chapter 06
  173. 00:44:08.437                : :Chapter 07
  174. 00:50:43.498                : :Chapter 08
  175. 00:56:18.625                : :Chapter 09
  176. 01:03:02.820                : :Chapter 10
  177. 01:11:17.398                : :Chapter 11
  178. 01:17:49.164                : :Chapter 12
  179. 01:27:03.051                : :Chapter 13
  180. 01:33:22.430                : :Chapter 14
  181. 01:40:51.795                : :Chapter 15
  182. 01:46:25.087                : :Chapter 16
  183. 01:52:49.888                : :Chapter 17
RAW Paste Data
We use cookies for various purposes including analytics. By continuing to use Pastebin, you agree to our use of cookies as described in the Cookies Policy. OK, I Understand
 
Top