SHARE
TWEET

Untitled

a guest Aug 3rd, 2017 431 Never
Not a member of Pastebin yet? Sign Up, it unlocks many cool features!
  1. General
  2. Unique ID                   : 254932561530572883263863371029181371816 (0xBFCA39B4262BB22FBF69651A955415A8)
  3. Complete name               : M:\Relases\Movies\Other\enocde.mkv
  4. Format                      : Matroska
  5. Format version              : Version 2
  6. File size                   : 80.5 MiB
  7. Duration                    : 21 min 23 s
  8. Overall bit rate            : 526 kb/s
  9. Encoded date                : UTC 2017-08-03 08:38:04
  10. Writing application         : mkvmerge v14.0.0 ('Flow') 64bit
  11. Writing library             : libebml v1.3.4 + libmatroska v1.4.5
  12.  
  13. Video
  14. ID                          : 1
  15. Format                      : AVC
  16. Format/Info                 : Advanced Video Codec
  17. Format profile              : High@L3.1
  18. Format settings, CABAC      : Yes
  19. Format settings, ReFrames   : 4 frames
  20. Codec ID                    : V_MPEG4/ISO/AVC
  21. Duration                    : 21 min 23 s
  22. Bit rate                    : 460 kb/s
  23. Width                       : 720 pixels
  24. Height                      : 544 pixels
  25. Display aspect ratio        : 4:3
  26. Frame rate mode             : Constant
  27. Frame rate                  : 24.617 FPS
  28. Color space                 : YUV
  29. Chroma subsampling          : 4:2:0
  30. Bit depth                   : 8 bits
  31. Scan type                   : Progressive
  32. Bits/(Pixel*Frame)          : 0.048
  33. Stream size                 : 70.4 MiB (87%)
  34. Writing library             : x264 core 152 r2851 ba24899
  35. Encoding settings           : cabac=1 / ref=3 / deblock=1:-1:-1 / analyse=0x3:0x113 / me=umh / subme=7 / psy=1 / psy_rd=1.00:0.15 / mixed_ref=1 / me_range=16 / chroma_me=1 / trellis=2 / 8x8dct=1 / cqm=0 / deadzone=21,11 / fast_pskip=1 / chroma_qp_offset=-3 / threads=12 / lookahead_threads=2 / sliced_threads=0 / nr=0 / decimate=1 / interlaced=0 / bluray_compat=0 / constrained_intra=0 / bframes=3 / b_pyramid=2 / b_adapt=1 / b_bias=0 / direct=1 / weightb=1 / open_gop=0 / weightp=2 / keyint=246 / keyint_min=24 / scenecut=40 / intra_refresh=0 / rc_lookahead=40 / rc=2pass / mbtree=1 / bitrate=460 / ratetol=1.0 / qcomp=0.60 / qpmin=0 / qpmax=69 / qpstep=4 / cplxblur=20.0 / qblur=0.5 / vbv_maxrate=17500 / vbv_bufsize=17500 / nal_hrd=none / filler=0 / ip_ratio=1.40 / aq=1:1.00
  36. Default                     : Yes
  37. Forced                      : No
  38.  
  39. Audio
  40. ID                          : 2
  41. Format                      : AAC
  42. Format/Info                 : Advanced Audio Codec
  43. Format profile              : HE-AAC / LC
  44. Codec ID                    : A_AAC
  45. Duration                    : 21 min 23 s
  46. Bit rate                    : 64.0 kb/s
  47. Channel(s)                  : 2 channels
  48. Channel positions           : Front: L R
  49. Sampling rate               : 48.0 kHz / 24.0 kHz
  50. Frame rate                  : 23.438 FPS (1024 spf)
  51. Compression mode            : Lossy
  52. Delay relative to video     : 31 ms
  53. Stream size                 : 9.79 MiB (12%)
  54. Language                    : English
  55. Default                     : Yes
  56. Forced                      : No
  57.  
  58. Menu
  59. 00:00:00.000                : en:Chapter 1
  60. 00:01:05.963                : en:Chapter 2
  61. 00:08:50.749                : en:Chapter 3
  62. 00:13:53.477                : en:Chapter 4
  63. 00:20:52.251                : en:Chapter 5
RAW Paste Data
We use cookies for various purposes including analytics. By continuing to use Pastebin, you agree to our use of cookies as described in the Cookies Policy. OK, I Understand
 
Top