iMN0

The.Pacifier.2005.1080p.Blu-ray.Remux.MPEG-2.FLAC.5.1-Nobody.mkv

Jul 6th, 2021
73
Never
Not a member of Pastebin yet? Sign Up, it unlocks many cool features!
  1. General
  2. Complete name : The.Pacifier.2005.1080p.Blu-ray.Remux.MPEG-2.FLAC.5.1-Nobody.mkv
  3. Format : Matroska
  4. Format version : Version 4
  5. File size : 13.6 GiB
  6. Duration : 1 h 35 min
  7. Overall bit rate mode : Variable
  8. Overall bit rate : 20.5 Mb/s
  9. Encoded date : UTC 2019-08-19 06:18:56
  10. Writing application : mkvmerge v35.0.0 ('All The Love In The World') 64-bit
  11. Writing library : libebml v1.3.9 + libmatroska v1.5.2
  12.  
  13. Video
  14. ID : 1
  15. Format : MPEG Video
  16. Format version : Version 2
  17. Format profile : Main@High
  18. Format settings : BVOP
  19. Format settings, BVOP : Yes
  20. Format settings, Matrix : Default
  21. Format settings, GOP : M=3, N=15
  22. Codec ID : V_MPEG2
  23. Codec ID/Info : MPEG 1 or 2 Video
  24. Duration : 1 h 35 min
  25. Bit rate mode : Variable
  26. Bit rate : 19.0 Mb/s
  27. Maximum bit rate : 35.0 Mb/s
  28. Width : 1 920 pixels
  29. Height : 1 080 pixels
  30. Display aspect ratio : 16:9
  31. Frame rate mode : Constant
  32. Frame rate : 23.976 (24000/1001) FPS
  33. Color space : YUV
  34. Chroma subsampling : 4:2:0
  35. Bit depth : 8 bits
  36. Scan type : Progressive
  37. Compression mode : Lossy
  38. Bits/(Pixel*Frame) : 0.381
  39. Time code of first frame : 00:00:00:00
  40. Time code source : Group of pictures header
  41. GOP, Open/Closed : Open
  42. GOP, Open/Closed of first frame : Closed
  43. Stream size : 12.6 GiB (93%)
  44. Default : Yes
  45. Forced : No
  46.  
  47. Audio
  48. ID : 2
  49. Format : FLAC
  50. Format/Info : Free Lossless Audio Codec
  51. Codec ID : A_FLAC
  52. Duration : 1 h 35 min
  53. Bit rate mode : Variable
  54. Bit rate : 1 455 kb/s
  55. Channel(s) : 6 channels
  56. Channel layout : L R C LFE Ls Rs
  57. Sampling rate : 48.0 kHz
  58. Frame rate : 11.719 FPS (4096 SPF)
  59. Bit depth : 16 bits
  60. Compression mode : Lossless
  61. Stream size : 992 MiB (7%)
  62. Writing library : libFLAC 1.2.1 (UTC 2007-09-17)
  63. Language : English
  64. Default : Yes
  65. Forced : No
  66.  
  67. Text #1
  68. ID : 3
  69. Format : PGS
  70. Muxing mode : zlib
  71. Codec ID : S_HDMV/PGS
  72. Codec ID/Info : Picture based subtitle format used on BDs/HD-DVDs
  73. Duration : 1 h 28 min
  74. Bit rate : 29.6 kb/s
  75. Count of elements : 2066
  76. Stream size : 18.7 MiB (0%)
  77. Language : English
  78. Default : Yes
  79. Forced : No
  80.  
  81. Text #2
  82. ID : 4
  83. Format : PGS
  84. Muxing mode : zlib
  85. Codec ID : S_HDMV/PGS
  86. Codec ID/Info : Picture based subtitle format used on BDs/HD-DVDs
  87. Duration : 1 h 28 min
  88. Bit rate : 23.1 kb/s
  89. Count of elements : 2110
  90. Stream size : 14.7 MiB (0%)
  91. Language : Japanese
  92. Default : No
  93. Forced : No
  94.  
  95. Text #3
  96. ID : 5
  97. Format : PGS
  98. Muxing mode : zlib
  99. Codec ID : S_HDMV/PGS
  100. Codec ID/Info : Picture based subtitle format used on BDs/HD-DVDs
  101. Duration : 1 h 29 min
  102. Bit rate : 23.9 kb/s
  103. Count of elements : 2119
  104. Stream size : 15.3 MiB (0%)
  105. Language : Chinese
  106. Default : No
  107. Forced : No
  108.  
  109. Text #4
  110. ID : 6
  111. Format : PGS
  112. Muxing mode : zlib
  113. Codec ID : S_HDMV/PGS
  114. Codec ID/Info : Picture based subtitle format used on BDs/HD-DVDs
  115. Duration : 1 h 28 min
  116. Bit rate : 32.9 kb/s
  117. Count of elements : 2122
  118. Stream size : 20.8 MiB (0%)
  119. Language : Indonesian
  120. Default : No
  121. Forced : No
  122.  
  123. Text #5
  124. ID : 7
  125. Format : PGS
  126. Muxing mode : zlib
  127. Codec ID : S_HDMV/PGS
  128. Codec ID/Info : Picture based subtitle format used on BDs/HD-DVDs
  129. Duration : 1 h 28 min
  130. Bit rate : 33.5 kb/s
  131. Count of elements : 2129
  132. Stream size : 21.2 MiB (0%)
  133. Language : Malayalam
  134. Default : No
  135. Forced : No
  136.  
  137. Text #6
  138. ID : 8
  139. Format : PGS
  140. Muxing mode : zlib
  141. Codec ID : S_HDMV/PGS
  142. Codec ID/Info : Picture based subtitle format used on BDs/HD-DVDs
  143. Duration : 1 h 28 min
  144. Bit rate : 20.6 kb/s
  145. Count of elements : 2087
  146. Stream size : 13.1 MiB (0%)
  147. Language : Korean
  148. Default : No
  149. Forced : No
  150.  
  151. Text #7
  152. ID : 9
  153. Format : PGS
  154. Muxing mode : zlib
  155. Codec ID : S_HDMV/PGS
  156. Codec ID/Info : Picture based subtitle format used on BDs/HD-DVDs
  157. Duration : 1 h 28 min
  158. Bit rate : 30.3 kb/s
  159. Count of elements : 2127
  160. Stream size : 19.2 MiB (0%)
  161. Language : Portuguese
  162. Default : No
  163. Forced : No
  164.  
  165. Text #8
  166. ID : 10
  167. Format : PGS
  168. Muxing mode : zlib
  169. Codec ID : S_HDMV/PGS
  170. Codec ID/Info : Picture based subtitle format used on BDs/HD-DVDs
  171. Duration : 1 h 23 min
  172. Bit rate : 727 b/s
  173. Count of elements : 44
  174. Stream size : 443 KiB (0%)
  175. Language : Japanese
  176. Default : No
  177. Forced : No
  178.  
  179. Text #9
  180. ID : 11
  181. Format : PGS
  182. Muxing mode : zlib
  183. Codec ID : S_HDMV/PGS
  184. Codec ID/Info : Picture based subtitle format used on BDs/HD-DVDs
  185. Duration : 1 h 19 min
  186. Bit rate : 757 b/s
  187. Count of elements : 54
  188. Stream size : 438 KiB (0%)
  189. Language : Portuguese
  190. Default : No
  191. Forced : No
  192.  
  193. Menu
  194. 00:00:00.000 : en:Chapter 01
  195. 00:06:02.988 : en:Chapter 02
  196. 00:15:39.480 : en:Chapter 03
  197. 00:20:49.290 : en:Chapter 04
  198. 00:25:05.170 : en:Chapter 05
  199. 00:33:03.899 : en:Chapter 06
  200. 00:36:11.961 : en:Chapter 07
  201. 00:41:02.877 : en:Chapter 08
  202. 00:46:39.505 : en:Chapter 09
  203. 00:53:54.481 : en:Chapter 10
  204. 00:57:30.489 : en:Chapter 11
  205. 01:01:50.999 : en:Chapter 12
  206. 01:09:55.608 : en:Chapter 13
  207. 01:19:56.458 : en:Chapter 14
  208. 01:25:33.837 : en:Chapter 15
  209. 01:29:54.014 : en:Chapter 16
RAW Paste Data