Advertisement
Henry_Kr

GL-2022

Jul 13th, 2022
61
Never
Not a member of Pastebin yet? Sign Up, it unlocks many cool features!
text 3.75 KB | None
  1. Video
  2. ID : 1
  3. Format : AVC
  4. Format/Info : Advanced Video Codec
  5. Format profile : High@L4
  6. Format settings : CABAC / 4 Ref Frames
  7. Format settings, CABAC : Yes
  8. Format settings, Reference : 4 frames
  9. Codec ID : V_MPEG4/ISO/AVC
  10. Duration : 1 h 27 min
  11. Bit rate : 2 200 kb/s
  12. Width : 1 920 pixels
  13. Height : 1 080 pixels
  14. Display aspect ratio : 16:9
  15. Frame rate mode : Constant
  16. Frame rate : 23.976 (24000/1001) FPS
  17. Color space : YUV
  18. Chroma subsampling : 4:2:0
  19. Bit depth : 8 bits
  20. Scan type : Progressive
  21. Bits/(Pixel*Frame) : 0.044
  22. Stream size : 1.35 GiB (85%)
  23. Title : Green.Lantern.Beware.My.Power.2022.1080p.BluRay.[CartoonNOW]
  24. Writing library : x264 core 164 r3079 d9a19f0
  25. Encoding settings : cabac=1 / ref=2 / deblock=1:0:0 / analyse=0x3:0x113 / me=hex / subme=6 / psy=1 / psy_rd=1.00:0.00 / mixed_ref=1 / me_range=16 / chroma_me=1 / trellis=1 / 8x8dct=1 / cqm=0 / deadzone=21,11 / fast_pskip=1 / chroma_qp_offset=-2 / threads=24 / lookahead_threads=4 / sliced_threads=0 / nr=0 / decimate=1 / interlaced=0 / bluray_compat=0 / constrained_intra=0 / bframes=3 / b_pyramid=2 / b_adapt=1 / b_bias=0 / direct=1 / weightb=1 / open_gop=0 / weightp=1 / keyint=250 / keyint_min=23 / scenecut=40 / intra_refresh=0 / rc_lookahead=30 / rc=2pass / mbtree=1 / bitrate=2200 / ratetol=1.0 / qcomp=0.60 / qpmin=0 / qpmax=69 / qpstep=4 / cplxblur=20.0 / qblur=0.5 / ip_ratio=1.40 / aq=1:1.00
  26. Language : English
  27. Default : Yes
  28. Forced : No
  29. Color range : Limited
  30. Color primaries : BT.709
  31. Transfer characteristics : BT.709
  32. Matrix coefficients : BT.709
  33.  
  34. Audio
  35. ID : 2
  36. Format : AC-3
  37. Format/Info : Audio Coding 3
  38. Commercial name : Dolby Digital
  39. Codec ID : A_AC3
  40. Duration : 1 h 27 min
  41. Bit rate mode : Constant
  42. Bit rate : 384 kb/s
  43. Channel(s) : 6 channels
  44. Channel layout : L R C LFE Ls Rs
  45. Sampling rate : 48.0 kHz
  46. Frame rate : 31.250 FPS (1536 SPF)
  47. Compression mode : Lossy
  48. Delay relative to video : -5 ms
  49. Stream size : 240 MiB (15%)
  50. Title : AC3 5.1
  51. Language : English
  52. Service kind : Complete Main
  53. Default : Yes
  54. Forced : No
  55.  
  56. Text
  57. ID : 3
  58. Format : UTF-8
  59. Codec ID : S_TEXT/UTF8
  60. Codec ID/Info : UTF-8 Plain Text
  61. Duration : 1 h 24 min
  62. Bit rate : 50 b/s
  63. Count of elements : 856
  64. Stream size : 31.1 KiB (0%)
  65. Title : Completa
  66. Language : Portuguese
  67. Default : Yes
  68. Forced : No
  69.  
  70. Menu
  71. 00:00:00.000 : en:Chapter 1
  72. 00:05:03.350 : en:Chapter 2
  73. 00:14:52.939 : en:Chapter 3
  74. 00:23:46.180 : en:Chapter 4
  75. 00:29:35.404 : en:Chapter 5
  76. 00:35:36.848 : en:Chapter 6
  77. 00:45:13.424 : en:Chapter 7
  78. 00:55:12.856 : en:Chapter 8
  79. 01:04:57.315 : en:Chapter 9
  80. 01:11:03.765 : en:Chapter 10
  81. 01:18:26.665 : en:Chapter 11
  82. 01:24:52.634 : en:Chapter 12
Advertisement
RAW Paste Data Copied
Advertisement