Guest User

Untitled

a guest
Apr 10th, 2021
18
Never
Not a member of Pastebin yet? Sign Up, it unlocks many cool features!
  1. HandBrake 1.3.3 (2020061300)
  2. OS: Microsoft Windows NT 10.0.19041.0
  3. CPU: AMD Ryzen 7 3700X 8-Core Processor
  4. Ram: 32679 MB,
  5. GPU Information:
  6. NVIDIA GeForce RTX 2080 SUPER - 27.21.14.6589
  7. Screen: 1920x1200
  8. Temp Dir: C:\Users\chris\AppData\Local\Temp\
  9. Install Dir: C:\Program Files\HandBrake
  10. Data Dir: C:\Users\chris\AppData\Roaming\HandBrake
  11.  
  12. -------------------------------------------
  13.  
  14.  
  15. # Starting Encode ...
  16.  
  17. [08:57:26] base preset: Plex - Anime
  18. [20:57:26] hb_init: starting libhb thread
  19. [20:57:26] Starting work at: Sat Apr 10 20:57:26 2021
  20. [20:57:26] 1 job(s) to process
  21. [20:57:26] json job:
  22. {
  23. "Audio": {
  24. "AudioList": [
  25. {
  26. "Bitrate": 160,
  27. "DRC": 0.0,
  28. "Encoder": "av_aac",
  29. "Gain": 0.0,
  30. "Mixdown": 4,
  31. "NormalizeMixLevel": false,
  32. "Samplerate": 48000,
  33. "Name": "Stereo",
  34. "Track": 0,
  35. "DitherMethod": 0
  36. }
  37. ],
  38. "CopyMask": [
  39. "copy:aac",
  40. "copy:ac3",
  41. "copy:dtshd",
  42. "copy:dts",
  43. "copy:eac3",
  44. "copy:flac",
  45. "copy:mp3",
  46. "copy:truehd"
  47. ],
  48. "FallbackEncoder": "ac3"
  49. },
  50. "Destination": {
  51. "ChapterList": [
  52. {
  53. "Name": "Chapter 1"
  54. },
  55. {
  56. "Name": "Chapter 2"
  57. },
  58. {
  59. "Name": "Chapter 3"
  60. },
  61. {
  62. "Name": "Chapter 4"
  63. },
  64. {
  65. "Name": "Chapter 5"
  66. },
  67. {
  68. "Name": "Chapter 6"
  69. },
  70. {
  71. "Name": "Chapter 7"
  72. }
  73. ],
  74. "ChapterMarkers": true,
  75. "AlignAVStart": true,
  76. "File": "D:\\Rips\\HandBrake\\He Is My Master S01e01.mp4",
  77. "Mp4Options": {
  78. "IpodAtom": false,
  79. "Mp4Optimize": true
  80. },
  81. "Mux": "av_mp4"
  82. },
  83. "Filters": {
  84. "FilterList": [
  85. {
  86. "ID": 4,
  87. "Settings": {
  88. "mode": "7"
  89. }
  90. },
  91. {
  92. "ID": 3,
  93. "Settings": {
  94. "block-height": "16",
  95. "block-thresh": "40",
  96. "block-width": "16",
  97. "filter-mode": "2",
  98. "mode": "3",
  99. "motion-thresh": "1",
  100. "spatial-metric": "2",
  101. "spatial-thresh": "1"
  102. }
  103. },
  104. {
  105. "ID": 12,
  106. "Settings": {
  107. "crop-bottom": "0",
  108. "crop-left": "6",
  109. "crop-right": "4",
  110. "crop-top": "0",
  111. "height": "480",
  112. "width": "710"
  113. }
  114. },
  115. {
  116. "ID": 6,
  117. "Settings": {
  118. "mode": "1"
  119. }
  120. }
  121. ]
  122. },
  123. "PAR": {
  124. "Num": 32,
  125. "Den": 27
  126. },
  127. "Metadata": {},
  128. "SequenceID": 0,
  129. "Source": {
  130. "Angle": 1,
  131. "Range": {
  132. "Type": "chapter",
  133. "Start": 1,
  134. "End": 7
  135. },
  136. "Title": 1,
  137. "Path": "F:\\Rips\\MakeMKV\\HE_IS_MY_MASTER_DISC_1\\He is My Master S01E01.mkv"
  138. },
  139. "Subtitle": {
  140. "Search": {
  141. "Burn": false,
  142. "Default": false,
  143. "Enable": false,
  144. "Forced": false
  145. },
  146. "SubtitleList": [
  147. {
  148. "Burn": true,
  149. "Default": false,
  150. "Forced": false,
  151. "ID": 1,
  152. "Offset": 0,
  153. "Track": 0
  154. }
  155. ]
  156. },
  157. "Video": {
  158. "Encoder": "x264",
  159. "Level": "4.0",
  160. "TwoPass": false,
  161. "Turbo": false,
  162. "ColorMatrixCode": 0,
  163. "Options": "",
  164. "Preset": "fast",
  165. "Profile": "main",
  166. "Quality": 22.0,
  167. "Tune": "fastdecode",
  168. "QSV": {
  169. "Decode": false,
  170. "AsyncDepth": 0
  171. }
  172. }
  173. }
  174. [20:57:26] CPU: AMD Ryzen 7 3700X 8-Core Processor
  175. [20:57:26] - logical processor count: 16
  176. [20:57:26] Intel Quick Sync Video support: no
  177. [20:57:26] hb_scan: path=F:\Rips\MakeMKV\HE_IS_MY_MASTER_DISC_1\He is My Master S01E01.mkv, title_index=1
  178. udfread ERROR: ECMA 167 Volume Recognition failed
  179. src/libbluray/disc/disc.c:323: failed opening UDF image F:\Rips\MakeMKV\HE_IS_MY_MASTER_DISC_1\He is My Master S01E01.mkv
  180. src/libbluray/disc/disc.c:424: error opening file BDMV\index.bdmv
  181. src/libbluray/disc/disc.c:424: error opening file BDMV\BACKUP\index.bdmv
  182. src/libbluray/bluray.c:2585: nav_get_title_list(F:\Rips\MakeMKV\HE_IS_MY_MASTER_DISC_1\He is My Master S01E01.mkv\) failed
  183. [20:57:26] bd: not a bd - trying as a stream/file instead
  184. libdvdnav: Using dvdnav version 6.0.1
  185. libdvdread: Encrypted DVD support unavailable.
  186. libdvdread:DVDOpenFileUDF:UDFFindFile /VIDEO_TS/VIDEO_TS.IFO failed
  187. libdvdread:DVDOpenFileUDF:UDFFindFile /VIDEO_TS/VIDEO_TS.BUP failed
  188. libdvdread: Can't open file VIDEO_TS.IFO.
  189. libdvdnav: vm: failed to read VIDEO_TS.IFO
  190. [20:57:26] dvd: not a dvd - trying as a stream/file instead
  191. Input #0, matroska,webm, from 'F:\Rips\MakeMKV\HE_IS_MY_MASTER_DISC_1\He is My Master S01E01.mkv':
  192. Metadata:
  193. title : He is My Master S01E01
  194. encoder : libmakemkv v1.16.3 (1.3.10/1.5.2) win(x64-release)
  195. creation_time : 2021-04-10T16:49:30.000000Z
  196. Duration: 00:25:12.04, start: 0.000000, bitrate: 5160 kb/s
  197. Chapter #0:0: start 0.066733, end 27.093733
  198. Metadata:
  199. title : Chapter 01
  200. Chapter #0:1: start 27.093733, end 118.084633
  201. Metadata:
  202. title : Chapter 02
  203. Chapter #0:2: start 118.084633, end 688.054033
  204. Metadata:
  205. title : Chapter 03
  206. Chapter #0:3: start 688.054033, end 1332.497833
  207. Metadata:
  208. title : Chapter 04
  209. Chapter #0:4: start 1332.497833, end 1422.087333
  210. Metadata:
  211. title : Chapter 05
  212. Chapter #0:5: start 1422.087333, end 1451.983867
  213. Metadata:
  214. title : Chapter 06
  215. Chapter #0:6: start 1451.983867, end 1512.043867
  216. Metadata:
  217. title : Chapter 07
  218. Stream #0:0(eng): Video: mpeg2video (Main), yuv420p(tv, top first), 720x480 [SAR 32:27 DAR 16:9], SAR 186:157 DAR 279:157, 29.97 fps, 29.97 tbr, 1k tbn, 59.94 tbc
  219. Metadata:
  220. BPS-eng : 4934668
  221. DURATION-eng : 00:25:12.043866666
  222. NUMBER_OF_FRAMES-eng: 45316
  223. NUMBER_OF_BYTES-eng: 932678814
  224. SOURCE_ID-eng : 0100E0
  225. _STATISTICS_WRITING_APP-eng: MakeMKV v1.16.3 win(x64-release)
  226. _STATISTICS_WRITING_DATE_UTC-eng: 2021-04-10 16:49:30
  227. _STATISTICS_TAGS-eng: BPS DURATION NUMBER_OF_FRAMES NUMBER_OF_BYTES SOURCE_ID
  228. Stream #0:1(eng): Audio: ac3, 48000 Hz, stereo, fltp, 224 kb/s (default)
  229. Metadata:
  230. title : Stereo
  231. BPS-eng : 224000
  232. DURATION-eng : 00:24:11.968000000
  233. NUMBER_OF_FRAMES-eng: 45374
  234. NUMBER_OF_BYTES-eng: 40655104
  235. SOURCE_ID-eng : 0180BD
  236. _STATISTICS_WRITING_APP-eng: MakeMKV v1.16.3 win(x64-release)
  237. _STATISTICS_WRITING_DATE_UTC-eng: 2021-04-10 16:49:30
  238. _STATISTICS_TAGS-eng: BPS DURATION NUMBER_OF_FRAMES NUMBER_OF_BYTES SOURCE_ID
  239. Stream #0:2(eng): Subtitle: dvd_subtitle, 720x480 (default)
  240. Metadata:
  241. BPS-eng : 5426
  242. DURATION-eng : 00:23:58.192822222
  243. NUMBER_OF_FRAMES-eng: 409
  244. NUMBER_OF_BYTES-eng: 975576
  245. SOURCE_ID-eng : 0120BD
  246. _STATISTICS_WRITING_APP-eng: MakeMKV v1.16.3 win(x64-release)
  247. _STATISTICS_WRITING_DATE_UTC-eng: 2021-04-10 16:49:30
  248. _STATISTICS_TAGS-eng: BPS DURATION NUMBER_OF_FRAMES NUMBER_OF_BYTES SOURCE_ID
  249. [20:57:26] scan: decoding previews for title 1
  250. [20:57:26] scan: audio 0x1: ac3, rate=48000Hz, bitrate=224000 English (AC3) (2.0 ch) (224 kbps)
  251. [20:57:26] WARNING: Video PAR 32:27 != container PAR 186:157
  252. [20:57:26] scan: 10 previews, 720x480, 29.970 fps, autocrop = 0/0/6/4, aspect 16:9, PAR 32:27
  253. [20:57:26] libhb: scan thread found 1 valid title(s)
  254. [20:57:26] Starting Task: Encoding Pass
  255. [20:57:26] job configuration:
  256. [20:57:26] * source
  257. [20:57:26] + F:\Rips\MakeMKV\HE_IS_MY_MASTER_DISC_1\He is My Master S01E01.mkv
  258. [20:57:26] + title 1, chapter(s) 1 to 7
  259. [20:57:26] + container: matroska,webm
  260. [20:57:26] + data rate: 5160 kbps
  261. [20:57:26] * destination
  262. [20:57:26] + D:\Rips\HandBrake\He Is My Master S01e01.mp4
  263. [20:57:26] + container: MPEG-4 (libavformat)
  264. [20:57:26] + optimized for HTTP streaming (fast start)
  265. [20:57:26] + align initial A/V stream timestamps
  266. [20:57:26] + chapter markers
  267. [20:57:26] * video track
  268. [20:57:26] + decoder: mpeg2video
  269. [20:57:26] + filters
  270. [20:57:26] + Comb Detect (mode=3:spatial-metric=2:motion-thresh=1:spatial-thresh=1:filter-mode=2:block-thresh=40:block-width=16:block-height=16)
  271. [20:57:26] + Decomb (mode=39)
  272. [20:57:26] + Framerate Shaper (mode=1)
  273. [20:57:26] + frame rate: 29.970 fps -> constant 29.970 fps
  274. [20:57:26] + Subtitle renderer ()
  275. [20:57:26] + Crop and Scale (width=710:height=480:crop-top=0:crop-bottom=0:crop-left=6:crop-right=4)
  276. [20:57:26] + source: 720 * 480, crop (0/0/6/4): 710 * 480, scale: 710 * 480
  277. [20:57:26] + Output geometry
  278. [20:57:26] + storage dimensions: 710 x 480
  279. [20:57:26] + pixel aspect ratio: 32 : 27
  280. [20:57:26] + display dimensions: 841 x 480
  281. [20:57:26] + encoder: H.264 (libx264)
  282. [20:57:26] + preset: fast
  283. [20:57:26] + tune: fastdecode
  284. [20:57:26] + profile: main
  285. [20:57:26] + level: 4.0
  286. [20:57:26] + quality: 22.00 (RF)
  287. [20:57:26] + color profile: 6-1-6
  288. [20:57:26] * subtitle track 1, English [VOBSUB] (track 0, id 0x2, Picture) -> Render/Burn-in
  289. [20:57:26] * audio track 1
  290. [20:57:26] + name: Stereo
  291. [20:57:26] + decoder: English (AC3) (2.0 ch) (224 kbps) (track 1, id 0x1)
  292. [20:57:26] + bitrate: 224 kbps, samplerate: 48000 Hz
  293. [20:57:26] + mixdown: Stereo
  294. [20:57:26] + dither: none
  295. [20:57:26] + encoder: AAC (libavcodec)
  296. [20:57:26] + bitrate: 160 kbps, samplerate: 48000 Hz
  297. [20:57:26] sync: expecting 45315 video frames
  298. [20:57:26] encx264: min-keyint: 30, keyint: 300
  299. [20:57:26] encx264: encoding at constant RF 22.000000
  300. [20:57:26] encx264: unparsed options: level=4.0:ref=2:weightb=0:no-deblock=1:cabac=0:8x8dct=0:weightp=0:subme=6:vbv-bufsize=25000:vbv-maxrate=20000:rc-lookahead=30
  301. x264 [info]: using SAR=32/27
  302. x264 [info]: using cpu capabilities: MMX2 SSE2Fast SSSE3 SSE4.2 AVX FMA3 BMI2 AVX2
  303. x264 [info]: profile Main, level 4.0, 4:2:0, 8-bit
  304. [20:57:26] sync: first pts video is 0
  305. [20:57:26] sync: first pts audio 0x1 is 0
  306. [20:57:26] sync: "Chapter 1" (1) at frame 3 time 6006
  307. [20:57:27] sync: first pts subtitle 0x2 is 1234260
  308. [20:57:28] sync: "Chapter 2" (2) at frame 813 time 2438436
  309. [20:57:34] sync: "Chapter 3" (3) at frame 3540 time 10627617
  310. [20:58:09] sync: "Chapter 4" (4) at frame 20625 time 61933872
  311. [20:58:50] sync: "Chapter 5" (5) at frame 39936 time 119924805
  312. [20:58:56] sync: "Chapter 6" (6) at frame 42624 time 127996869
  313. [20:58:59] 1451.983765s: Video -> Film
  314. [20:58:59] sync: "Chapter 7" (7) at frame 43517 time 130678548
  315. [20:59:01] reader: done. 1 scr changes
  316. [20:59:01] work: average encoding speed for job is 476.109924 fps
  317. [20:59:01] comb detect: heavy 18437 | light 9751 | uncombed 17128 | total 45316
  318. [20:59:01] decomb: deinterlaced 18437 | blended 9751 | unfiltered 17128 | total 45316
  319. [20:59:01] vfr: 45316 frames output, 0 dropped and 0 duped for CFR/PFR
  320. [20:59:01] vfr: lost time: 0 (0 frames)
  321. [20:59:01] vfr: gained time: 0 (0 frames) (0 not accounted for)
  322. [20:59:01] ac3-decoder done: 45374 frames, 0 decoder errors
  323. [20:59:01] mpeg2video-decoder done: 45316 frames, 0 decoder errors
  324. [20:59:01] sync: got 45316 frames, 45315 expected
  325. [20:59:01] sync: framerate min 29.970 fps, max 29.970 fps, avg 29.970 fps
  326. x264 [info]: frame I:424 Avg QP:19.67 size: 30572
  327. x264 [info]: frame P:12547 Avg QP:22.44 size: 6579
  328. x264 [info]: frame B:32345 Avg QP:23.24 size: 1395
  329. x264 [info]: consecutive B-frames: 3.3% 3.4% 3.9% 89.5%
  330. x264 [info]: mb I I16..4: 38.4% 0.0% 61.6%
  331. x264 [info]: mb P I16..4: 6.2% 0.0% 4.6% P16..4: 37.2% 8.5% 4.0% 0.0% 0.0% skip:39.4%
  332. x264 [info]: mb B I16..4: 2.4% 0.0% 0.4% B16..8: 12.8% 2.3% 0.2% direct:10.8% skip:71.1% L0:46.9% L1:47.0% BI: 6.2%
  333. x264 [info]: coded y,uvDC,uvAC intra: 34.0% 77.6% 36.5% inter: 4.7% 21.5% 1.2%
  334. x264 [info]: i16 v,h,dc,p: 45% 26% 14% 15%
  335. x264 [info]: i4 v,h,dc,ddl,ddr,vr,hd,vl,hu: 27% 17% 18% 7% 7% 7% 5% 6% 5%
  336. x264 [info]: i8c dc,h,v,p: 49% 21% 22% 7%
  337. x264 [info]: ref P L0: 59.5% 40.5%
  338. x264 [info]: ref B L0: 75.2% 24.8%
  339. x264 [info]: ref B L1: 92.8% 7.2%
  340. x264 [info]: kb/s:744.03
  341. [20:59:01] mux: track 0, 45316 frames, 140611276 bytes, 743.94 kbps, fifo 4096
  342. [20:59:01] mux: track 1, 68062 frames, 29148648 bytes, 154.22 kbps, fifo 8192
  343. [20:59:01] Finished work at: Sat Apr 10 20:59:01 2021
  344. [20:59:01] libhb: work result = 0
  345.  
  346. # Encode Completed ...
  347.  
  348. HandBrake 1.3.1 (2020010400)
  349. OS: Microsoft Windows NT 10.0.19041.0
  350. CPU: AMD Ryzen 7 3700X 8-Core Processor
  351. Ram: 32679 MB,
  352. GPU Information:
  353. NVIDIA GeForce RTX 2080 SUPER - 27.21.14.5671
  354. Screen: 1920x1200
  355. Temp Dir: C:\Users\chris\AppData\Local\Temp\
  356. Install Dir: C:\Program Files\HandBrake
  357. Data Dir: C:\Users\chris\AppData\Roaming\HandBrake
  358.  
  359. -------------------------------------------
  360.  
  361.  
  362. # Starting Encode ...
  363.  
  364. [03:25:07] base preset: Plex - Anime
  365. [15:25:07] hb_init: starting libhb thread
  366. [15:25:07] Starting work at: Sat Apr 03 15:25:07 2021
  367. [15:25:07] 1 job(s) to process
  368. [15:25:07] json job:
  369. {
  370. "Audio": {
  371. "AudioList": [
  372. {
  373. "Bitrate": 448,
  374. "DRC": 0.0,
  375. "Encoder": "av_aac",
  376. "Gain": 0.0,
  377. "Mixdown": 7,
  378. "NormalizeMixLevel": false,
  379. "Samplerate": 48000,
  380. "Name": "Surround 5.1",
  381. "Track": 0,
  382. "DitherMethod": 0
  383. },
  384. {
  385. "Bitrate": 160,
  386. "DRC": 0.0,
  387. "Encoder": "av_aac",
  388. "Gain": 0.0,
  389. "Mixdown": 4,
  390. "NormalizeMixLevel": false,
  391. "Samplerate": 48000,
  392. "Name": "Surround 5.1",
  393. "Track": 0,
  394. "DitherMethod": 0
  395. }
  396. ],
  397. "CopyMask": [
  398. "copy:aac",
  399. "copy:ac3",
  400. "copy:dtshd",
  401. "copy:dts",
  402. "copy:eac3",
  403. "copy:flac",
  404. "copy:mp3",
  405. "copy:truehd"
  406. ],
  407. "FallbackEncoder": "ac3"
  408. },
  409. "Destination": {
  410. "ChapterList": [
  411. {
  412. "Name": "Chapter 1"
  413. },
  414. {
  415. "Name": "Chapter 2"
  416. },
  417. {
  418. "Name": "Chapter 3"
  419. },
  420. {
  421. "Name": "Chapter 4"
  422. },
  423. {
  424. "Name": "Chapter 5"
  425. },
  426. {
  427. "Name": "Chapter 6"
  428. }
  429. ],
  430. "ChapterMarkers": true,
  431. "AlignAVStart": true,
  432. "File": "F:\\Rips\\HandBrake\\Fullmetal Alchemist Brotherhood S01e01.mp4",
  433. "Mp4Options": {
  434. "IpodAtom": false,
  435. "Mp4Optimize": true
  436. },
  437. "Mux": "mp4"
  438. },
  439. "Filters": {
  440. "FilterList": [
  441. {
  442. "ID": 4,
  443. "Settings": {
  444. "mode": "7"
  445. }
  446. },
  447. {
  448. "ID": 3,
  449. "Settings": {
  450. "block-height": "16",
  451. "block-thresh": "40",
  452. "block-width": "16",
  453. "filter-mode": "2",
  454. "mode": "3",
  455. "motion-thresh": "1",
  456. "spatial-metric": "2",
  457. "spatial-thresh": "1"
  458. }
  459. },
  460. {
  461. "ID": 12,
  462. "Settings": {
  463. "crop-bottom": "2",
  464. "crop-left": "0",
  465. "crop-right": "2",
  466. "crop-top": "0",
  467. "height": "1078",
  468. "width": "1918"
  469. }
  470. },
  471. {
  472. "ID": 6,
  473. "Settings": {
  474. "mode": "1"
  475. }
  476. }
  477. ]
  478. },
  479. "PAR": {
  480. "Num": 1,
  481. "Den": 1
  482. },
  483. "Metadata": {},
  484. "SequenceID": 0,
  485. "Source": {
  486. "Angle": 1,
  487. "Range": {
  488. "Type": "chapter",
  489. "Start": 1,
  490. "End": 6
  491. },
  492. "Title": 1,
  493. "Path": "F:\\Rips\\MakeMKV\\Fullmetal Alchemist Brotherhood Part 1 Disc 1\\Fullmetal Alchemist Brotherhood S01E01.mkv"
  494. },
  495. "Subtitle": {
  496. "Search": {
  497. "Burn": true,
  498. "Default": false,
  499. "Enable": true,
  500. "Forced": true
  501. },
  502. "SubtitleList": []
  503. },
  504. "Video": {
  505. "Encoder": "x264",
  506. "Level": "4.0",
  507. "TwoPass": false,
  508. "Turbo": false,
  509. "ColorMatrixCode": 0,
  510. "Options": "",
  511. "Preset": "fast",
  512. "Profile": "main",
  513. "Quality": 22.0,
  514. "Tune": "fastdecode",
  515. "QSV": {
  516. "Decode": false,
  517. "AsyncDepth": 0
  518. }
  519. }
  520. }
  521. [15:25:07] CPU: AMD Ryzen 7 3700X 8-Core Processor
  522. [15:25:07] - logical processor count: 16
  523. [15:25:07] Intel Quick Sync Video support: no
  524. [15:25:07] hb_scan: path=F:\Rips\MakeMKV\Fullmetal Alchemist Brotherhood Part 1 Disc 1\Fullmetal Alchemist Brotherhood S01E01.mkv, title_index=1
  525. udfread ERROR: ECMA 167 Volume Recognition failed
  526. src/libbluray/disc/disc.c:323: failed opening UDF image F:\Rips\MakeMKV\Fullmetal Alchemist Brotherhood Part 1 Disc 1\Fullmetal Alchemist Brotherhood S01E01.mkv
  527. src/libbluray/disc/disc.c:424: error opening file BDMV\index.bdmv
  528. src/libbluray/disc/disc.c:424: error opening file BDMV\BACKUP\index.bdmv
  529. src/libbluray/bluray.c:2585: nav_get_title_list(F:\Rips\MakeMKV\Fullmetal Alchemist Brotherhood Part 1 Disc 1\Fullmetal Alchemist Brotherhood S01E01.mkv\) failed
  530. [15:25:07] bd: not a bd - trying as a stream/file instead
  531. libdvdnav: Using dvdnav version 6.0.1
  532. libdvdread: Encrypted DVD support unavailable.
  533. libdvdread:DVDOpenFileUDF:UDFFindFile /VIDEO_TS/VIDEO_TS.IFO failed
  534. libdvdread:DVDOpenFileUDF:UDFFindFile /VIDEO_TS/VIDEO_TS.BUP failed
  535. libdvdread: Can't open file VIDEO_TS.IFO.
  536. libdvdnav: vm: failed to read VIDEO_TS.IFO
  537. [15:25:07] dvd: not a dvd - trying as a stream/file instead
  538. Input #0, matroska,webm, from 'F:\Rips\MakeMKV\Fullmetal Alchemist Brotherhood Part 1 Disc 1\Fullmetal Alchemist Brotherhood S01E01.mkv':
  539. Metadata:
  540. title : Fullmetal Alchemist Brotherhood S01E01
  541. encoder : libmakemkv v1.16.3 (1.3.10/1.5.2) win(x64-release)
  542. creation_time : 2021-04-03T16:22:32.000000Z
  543. Duration: 00:24:29.63, start: 0.000000, bitrate: 19772 kb/s
  544. Chapter #0:0: start 0.000000, end 59.809750
  545. Metadata:
  546. title : Chapter 01
  547. Chapter #0:1: start 59.809750, end 149.774625
  548. Metadata:
  549. title : Chapter 02
  550. Chapter #0:2: start 149.774625, end 656.155500
  551. Metadata:
  552. title : Chapter 03
  553. Chapter #0:3: start 656.155500, end 1348.096750
  554. Metadata:
  555. title : Chapter 04
  556. Chapter #0:4: start 1348.096750, end 1438.603833
  557. Metadata:
  558. title : Chapter 05
  559. Chapter #0:5: start 1438.603833, end 1469.634833
  560. Metadata:
  561. title : Chapter 06
  562. Stream #0:0(eng): Video: h264 (High), yuv420p(tv, bt709, progressive), 1920x1080 [SAR 1:1 DAR 16:9], 23.98 fps, 23.98 tbr, 1k tbn, 47.95 tbc
  563. Metadata:
  564. BPS-eng : 14428711
  565. DURATION-eng : 00:24:29.634833333
  566. NUMBER_OF_FRAMES-eng: 35236
  567. NUMBER_OF_BYTES-eng: 2650615675
  568. SOURCE_ID-eng : 001011
  569. _STATISTICS_WRITING_APP-eng: MakeMKV v1.16.3 win(x64-release)
  570. _STATISTICS_WRITING_DATE_UTC-eng: 2021-04-03 16:22:32
  571. _STATISTICS_TAGS-eng: BPS DURATION NUMBER_OF_FRAMES NUMBER_OF_BYTES SOURCE_ID
  572. Stream #0:1(eng): Audio: truehd, 48000 Hz, 5.1(side), s32 (24 bit) (default)
  573. Metadata:
  574. title : Surround 5.1
  575. BPS-eng : 3185507
  576. DURATION-eng : 00:24:29.635000000
  577. NUMBER_OF_FRAMES-eng: 1763562
  578. NUMBER_OF_BYTES-eng: 585191724
  579. SOURCE_ID-eng : 001100
  580. _STATISTICS_WRITING_APP-eng: MakeMKV v1.16.3 win(x64-release)
  581. _STATISTICS_WRITING_DATE_UTC-eng: 2021-04-03 16:22:32
  582. _STATISTICS_TAGS-eng: BPS DURATION NUMBER_OF_FRAMES NUMBER_OF_BYTES SOURCE_ID
  583. Stream #0:2(eng): Audio: ac3, 48000 Hz, 5.1(side), fltp, 448 kb/s
  584. Metadata:
  585. title : Surround 5.1
  586. BPS-eng : 448000
  587. DURATION-eng : 00:24:29.664000000
  588. NUMBER_OF_FRAMES-eng: 45927
  589. NUMBER_OF_BYTES-eng: 82301184
  590. SOURCE_ID-eng : 001100
  591. _STATISTICS_WRITING_APP-eng: MakeMKV v1.16.3 win(x64-release)
  592. _STATISTICS_WRITING_DATE_UTC-eng: 2021-04-03 16:22:32
  593. _STATISTICS_TAGS-eng: BPS DURATION NUMBER_OF_FRAMES NUMBER_OF_BYTES SOURCE_ID
  594. Stream #0:3(jpn): Audio: truehd, 48000 Hz, stereo, s32 (24 bit)
  595. Metadata:
  596. title : Stereo
  597. BPS-eng : 812874
  598. DURATION-eng : 00:24:29.635000000
  599. NUMBER_OF_FRAMES-eng: 1763562
  600. NUMBER_OF_BYTES-eng: 149328626
  601. SOURCE_ID-eng : 001101
  602. _STATISTICS_WRITING_APP-eng: MakeMKV v1.16.3 win(x64-release)
  603. _STATISTICS_WRITING_DATE_UTC-eng: 2021-04-03 16:22:32
  604. _STATISTICS_TAGS-eng: BPS DURATION NUMBER_OF_FRAMES NUMBER_OF_BYTES SOURCE_ID
  605. Stream #0:4(jpn): Audio: ac3, 48000 Hz, stereo, fltp, 192 kb/s
  606. Metadata:
  607. title : Stereo
  608. BPS-eng : 192000
  609. DURATION-eng : 00:24:29.664000000
  610. NUMBER_OF_FRAMES-eng: 45927
  611. NUMBER_OF_BYTES-eng: 35271936
  612. SOURCE_ID-eng : 001101
  613. _STATISTICS_WRITING_APP-eng: MakeMKV v1.16.3 win(x64-release)
  614. _STATISTICS_WRITING_DATE_UTC-eng: 2021-04-03 16:22:32
  615. _STATISTICS_TAGS-eng: BPS DURATION NUMBER_OF_FRAMES NUMBER_OF_BYTES SOURCE_ID
  616. Stream #0:5(eng): Audio: ac3, 48000 Hz, stereo, fltp, 640 kb/s
  617. Metadata:
  618. title : Stereo
  619. BPS-eng : 640000
  620. DURATION-eng : 00:24:29.664000000
  621. NUMBER_OF_FRAMES-eng: 45927
  622. NUMBER_OF_BYTES-eng: 117573120
  623. SOURCE_ID-eng : 001102
  624. _STATISTICS_WRITING_APP-eng: MakeMKV v1.16.3 win(x64-release)
  625. _STATISTICS_WRITING_DATE_UTC-eng: 2021-04-03 16:22:32
  626. _STATISTICS_TAGS-eng: BPS DURATION NUMBER_OF_FRAMES NUMBER_OF_BYTES SOURCE_ID
  627. Stream #0:6(eng): Subtitle: hdmv_pgs_subtitle
  628. Metadata:
  629. BPS-eng : 35936
  630. DURATION-eng : 00:24:16.475854166
  631. NUMBER_OF_FRAMES-eng: 668
  632. NUMBER_OF_BYTES-eng: 6542561
  633. SOURCE_ID-eng : 001200
  634. _STATISTICS_WRITING_APP-eng: MakeMKV v1.16.3 win(x64-release)
  635. _STATISTICS_WRITING_DATE_UTC-eng: 2021-04-03 16:22:32
  636. _STATISTICS_TAGS-eng: BPS DURATION NUMBER_OF_FRAMES NUMBER_OF_BYTES SOURCE_ID
  637. Stream #0:7(eng): Subtitle: hdmv_pgs_subtitle
  638. Metadata:
  639. BPS-eng : 5159
  640. DURATION-eng : 00:22:56.938062500
  641. NUMBER_OF_FRAMES-eng: 86
  642. NUMBER_OF_BYTES-eng: 888114
  643. SOURCE_ID-eng : 001201
  644. _STATISTICS_WRITING_APP-eng: MakeMKV v1.16.3 win(x64-release)
  645. _STATISTICS_WRITING_DATE_UTC-eng: 2021-04-03 16:22:32
  646. _STATISTICS_TAGS-eng: BPS DURATION NUMBER_OF_FRAMES NUMBER_OF_BYTES SOURCE_ID
  647. [15:25:07] scan: decoding previews for title 1
  648. [15:25:07] scan: audio 0x1: truehd, rate=48000Hz, bitrate=1 English (TrueHD) (5.1 ch)
  649. [15:25:07] scan: audio 0x2: ac3, rate=48000Hz, bitrate=448000 English (AC3) (5.1 ch) (448 kbps)
  650. [15:25:07] scan: audio 0x3: truehd, rate=48000Hz, bitrate=1 ??? (TrueHD) (2.0 ch) (Dolby Surround)
  651. [15:25:07] scan: audio 0x4: ac3, rate=48000Hz, bitrate=192000 ??? (AC3) (2.0 ch) (Dolby Surround) (192 kbps)
  652. [15:25:07] scan: audio 0x5: ac3, rate=48000Hz, bitrate=640000 English (AC3) (2.0 ch) (640 kbps)
  653. [15:25:07] scan: 10 previews, 1920x1080, 23.976 fps, autocrop = 0/2/0/2, aspect 16:9, PAR 1:1
  654. [15:25:07] scan: supported video decoders: avcodec qsv
  655. [15:25:07] libhb: scan thread found 1 valid title(s)
  656. [15:25:07] Starting Task: Subtitle Scan
  657. [15:25:07] job configuration:
  658. [15:25:07] * source
  659. [15:25:07] + F:\Rips\MakeMKV\Fullmetal Alchemist Brotherhood Part 1 Disc 1\Fullmetal Alchemist Brotherhood S01E01.mkv
  660. [15:25:07] + title 1, chapter(s) 1 to 6
  661. [15:25:07] + container: matroska,webm
  662. [15:25:07] + data rate: 19772 kbps
  663. [15:25:07] * destination
  664. [15:25:07] + F:\Rips\HandBrake\Fullmetal Alchemist Brotherhood S01e01.mp4
  665. [15:25:07] + container: MPEG-4 (libavformat)
  666. [15:25:07] + optimized for HTTP streaming (fast start)
  667. [15:25:07] + align initial A/V stream timestamps
  668. [15:25:07] + chapter markers
  669. [15:25:07] * video track
  670. [15:25:07] + decoder: h264
  671. [15:25:07] + filters
  672. [15:25:07] + Comb Detect (mode=3:spatial-metric=2:motion-thresh=1:spatial-thresh=1:filter-mode=2:block-thresh=40:block-width=16:block-height=16)
  673. [15:25:07] + Decomb (mode=39)
  674. [15:25:07] + Framerate Shaper (mode=1)
  675. [15:25:07] + frame rate: 23.976 fps -> constant 23.976 fps
  676. [15:25:07] + Crop and Scale (width=1918:height=1078:crop-top=0:crop-bottom=2:crop-left=0:crop-right=2)
  677. [15:25:07] + source: 1920 * 1080, crop (0/2/0/2): 1918 * 1078, scale: 1918 * 1078
  678. [15:25:07] + Output geometry
  679. [15:25:07] + storage dimensions: 1918 x 1078
  680. [15:25:07] + pixel aspect ratio: 1 : 1
  681. [15:25:07] + display dimensions: 1918 x 1078
  682. [15:25:07] * Foreign Audio Search: Render/Burn-in, Forced Only
  683. [15:25:07] + subtitle, English [PGS] (track 0, id 0x6, Picture)
  684. [15:25:07] + subtitle, English [PGS] (track 1, id 0x7, Picture)
  685. [15:25:07] sync: expecting 35235 video frames
  686. [15:25:45] reader: done. 1 scr changes
  687. [15:25:45] work: average encoding speed for job is 0.000000 fps
  688. [15:25:45] comb detect: heavy 0 | light 0 | uncombed 0 | total 0
  689. [15:25:45] decomb: deinterlaced 0 | blended 0 | unfiltered 0 | total 0
  690. [15:25:45] vfr: 0 frames output, 0 dropped and 0 duped for CFR/PFR
  691. [15:25:45] vfr: lost time: 0 (0 frames)
  692. [15:25:45] vfr: gained time: 0 (0 frames) (0 not accounted for)
  693. [15:25:45] h264-decoder done: 0 frames, 0 decoder errors
  694. [15:25:45] sync: got 0 frames, 35235 expected
  695. [15:25:45] Subtitle track 0 (id 0x6) 'English [PGS]': 338 hits (0 forced)
  696. [15:25:45] Subtitle track 1 (id 0x7) 'English [PGS]': 43 hits (0 forced)
  697. [15:25:45] No candidate detected during subtitle scan
  698. [15:25:45] Starting Task: Encoding Pass
  699. [15:25:45] job configuration:
  700. [15:25:45] * source
  701. [15:25:45] + F:\Rips\MakeMKV\Fullmetal Alchemist Brotherhood Part 1 Disc 1\Fullmetal Alchemist Brotherhood S01E01.mkv
  702. [15:25:45] + title 1, chapter(s) 1 to 6
  703. [15:25:45] + container: matroska,webm
  704. [15:25:45] + data rate: 19772 kbps
  705. [15:25:45] * destination
  706. [15:25:45] + F:\Rips\HandBrake\Fullmetal Alchemist Brotherhood S01e01.mp4
  707. [15:25:45] + container: MPEG-4 (libavformat)
  708. [15:25:45] + optimized for HTTP streaming (fast start)
  709. [15:25:45] + align initial A/V stream timestamps
  710. [15:25:45] + chapter markers
  711. [15:25:45] * video track
  712. [15:25:45] + decoder: h264
  713. [15:25:45] + filters
  714. [15:25:45] + Comb Detect (mode=3:spatial-metric=2:motion-thresh=1:spatial-thresh=1:filter-mode=2:block-thresh=40:block-width=16:block-height=16)
  715. [15:25:45] + Decomb (mode=39)
  716. [15:25:45] + Framerate Shaper (mode=1)
  717. [15:25:45] + frame rate: 23.976 fps -> constant 23.976 fps
  718. [15:25:45] + Crop and Scale (width=1918:height=1078:crop-top=0:crop-bottom=2:crop-left=0:crop-right=2)
  719. [15:25:45] + source: 1920 * 1080, crop (0/2/0/2): 1918 * 1078, scale: 1918 * 1078
  720. [15:25:45] + Output geometry
  721. [15:25:45] + storage dimensions: 1918 x 1078
  722. [15:25:45] + pixel aspect ratio: 1 : 1
  723. [15:25:45] + display dimensions: 1918 x 1078
  724. [15:25:45] + encoder: H.264 (libx264)
  725. [15:25:45] + preset: fast
  726. [15:25:45] + tune: fastdecode
  727. [15:25:45] + profile: main
  728. [15:25:45] + level: 4.0
  729. [15:25:45] + quality: 22.00 (RF)
  730. [15:25:45] + color profile: 1-1-1
  731. [15:25:45] * audio track 1
  732. [15:25:45] + name: Surround 5.1
  733. [15:25:45] + decoder: English (TrueHD) (5.1 ch) (track 1, id 0x1)
  734. [15:25:45] + samplerate: 48000 Hz
  735. [15:25:45] + mixdown: 5.1 Channels
  736. [15:25:45] + dither: none
  737. [15:25:45] + encoder: AAC (libavcodec)
  738. [15:25:45] + bitrate: 448 kbps, samplerate: 48000 Hz
  739. [15:25:45] * audio track 2
  740. [15:25:45] + name: Surround 5.1
  741. [15:25:45] + decoder: English (TrueHD) (5.1 ch) (track 1, id 0x1)
  742. [15:25:45] + samplerate: 48000 Hz
  743. [15:25:45] + mixdown: Stereo
  744. [15:25:45] + dither: none
  745. [15:25:45] + encoder: AAC (libavcodec)
  746. [15:25:45] + bitrate: 160 kbps, samplerate: 48000 Hz
  747. [15:25:45] sync: expecting 35235 video frames
  748. [15:25:45] encx264: min-keyint: 24, keyint: 240
  749. [15:25:45] encx264: encoding at constant RF 22.000000
  750. [15:25:45] encx264: unparsed options: level=4.0:ref=2:weightb=0:no-deblock=1:cabac=0:8x8dct=0:weightp=0:subme=6:vbv-bufsize=25000:vbv-maxrate=20000:rc-lookahead=30
  751. x264 [info]: using SAR=1/1
  752. x264 [info]: using cpu capabilities: MMX2 SSE2Fast SSSE3 SSE4.2 AVX FMA3 BMI2 AVX2
  753. x264 [info]: profile Main, level 4.0, 4:2:0, 8-bit
  754. [15:25:45] sync: first pts audio 0x1 is 0
  755. [15:25:45] sync: first pts audio 0x1 is 0
  756. [15:25:45] sync: first pts video is 0
  757. [15:25:45] sync: "Chapter 1" (1) at frame 1 time 0
  758. [15:25:55] sync: "Chapter 2" (2) at frame 1435 time 5382877
  759. [15:26:22] sync: "Chapter 3" (3) at frame 3592 time 13479716
  760. [15:27:57] sync: "Chapter 4" (4) at frame 15733 time 59053995
  761. [15:30:31] sync: "Chapter 5" (5) at frame 32323 time 121328707
  762. [15:30:54] sync: "Chapter 6" (6) at frame 34493 time 129474345
  763. [15:31:00] reader: done. 1 scr changes
  764. [15:31:01] work: average encoding speed for job is 111.498856 fps
  765. [15:31:01] comb detect: heavy 12 | light 149 | uncombed 35075 | total 35236
  766. [15:31:01] decomb: deinterlaced 12 | blended 149 | unfiltered 35075 | total 35236
  767. [15:31:01] vfr: 35236 frames output, 0 dropped and 0 duped for CFR/PFR
  768. [15:31:01] vfr: lost time: 0 (0 frames)
  769. [15:31:01] vfr: gained time: 0 (0 frames) (0 not accounted for)
  770. [15:31:01] truehd-decoder done: 1763562 frames, 0 decoder errors
  771. [15:31:01] truehd-decoder done: 1763562 frames, 0 decoder errors
  772. [15:31:01] h264-decoder done: 35236 frames, 0 decoder errors
  773. [15:31:01] sync: got 35236 frames, 35235 expected
  774. [15:31:01] sync: framerate min 23.976 fps, max 23.976 fps, avg 23.976 fps
  775. x264 [info]: frame I:744 Avg QP:16.87 size:123057
  776. x264 [info]: frame P:10634 Avg QP:19.21 size: 28020
  777. x264 [info]: frame B:23858 Avg QP:21.35 size: 7117
  778. x264 [info]: consecutive B-frames: 6.7% 6.7% 7.1% 79.5%
  779. x264 [info]: mb I I16..4: 41.5% 0.0% 58.5%
  780. x264 [info]: mb P I16..4: 12.0% 0.0% 7.1% P16..4: 30.5% 5.3% 2.5% 0.0% 0.0% skip:42.7%
  781. x264 [info]: mb B I16..4: 3.4% 0.0% 0.6% B16..8: 9.4% 1.9% 0.1% direct: 9.6% skip:74.9% L0:48.2% L1:47.5% BI: 4.3%
  782. x264 [info]: coded y,uvDC,uvAC intra: 34.4% 66.0% 24.6% inter: 2.9% 18.3% 0.6%
  783. x264 [info]: i16 v,h,dc,p: 45% 25% 15% 15%
  784. x264 [info]: i4 v,h,dc,ddl,ddr,vr,hd,vl,hu: 28% 19% 21% 6% 6% 5% 5% 5% 4%
  785. x264 [info]: i8c dc,h,v,p: 53% 20% 22% 5%
  786. x264 [info]: ref P L0: 69.3% 30.7%
  787. x264 [info]: ref B L0: 79.1% 20.9%
  788. x264 [info]: ref B L1: 94.8% 5.2%
  789. x264 [info]: kb/s:3044.63
  790. [15:31:01] mux: track 0, 35236 frames, 559293770 bytes, 3044.45 kbps, fifo 2048
  791. [15:31:01] mux: track 1, 68890 frames, 82191704 bytes, 447.40 kbps, fifo 4096
  792. [15:31:01] mux: track 2, 68890 frames, 29454301 bytes, 160.33 kbps, fifo 4096
  793. [15:31:01] Finished work at: Sat Apr 03 15:31:01 2021
  794. [15:31:01] libhb: work result = 0
  795.  
  796. # Encode Completed ...
  797.  
  798.  
  799.  
RAW Paste Data