GrabHD

Untitled

Feb 20th, 2020
89
Never
Not a member of Pastebin yet? Sign Up, it unlocks many cool features!
  1. Общее
  2. Уникальный идентификатор : 262955642327994176027686602208847898857 (0xC5D36A20A3291321811D98A7E7ECA8E9)
  3. Полное имя : R:The Return of Jafar (1994) BDRip 1080p [HEVC].mkv
  4. Формат : Matroska
  5. Версия формата : Version 4 / Version 2
  6. Размер файла : 4,42 Гбайт
  7. Продолжительность : 1 ч. 9 м.
  8. Общий поток : 9143 Кбит/сек
  9. Название фильма : The Return of Jafar (1994)
  10. Дата кодирования : UTC 2020-02-19 04:05:07
  11. Программа кодирования : mkvmerge v43.0.0 ('The Quartermaster') 64-bit
  12. Библиотека кодирования : libebml v1.3.10 + libmatroska v1.5.2
  13. Обложка : Yes
  14. Attachments : cover.jpg
  15.  
  16. Видео
  17. Идентификатор : 1
  18. Формат : HEVC
  19. Формат/Информация : High Efficiency Video Coding
  20. Профиль формата : Main 10@L4.1@High
  21. Идентификатор кодека : V_MPEGH/ISO/HEVC
  22. Продолжительность : 1 ч. 9 м.
  23. Битрейт : 8328 Кбит/сек
  24. Ширина : 1920 пикселей
  25. Высота : 1080 пикселей
  26. Соотношение сторон : 16:9
  27. Режим частоты кадров : Постоянный
  28. Частота кадров : 23,976 (23976/1000) кадра/сек
  29. Частота кадров в оригинале : 23,976 (24000/1001) кадра/сек
  30. Цветовое пространство : YUV
  31. Субдискретизация насыщенности : 4:2:0
  32. Битовая глубина : 10 бит
  33. Бит/(Пиксели*Кадры) : 0.168
  34. Размер потока : 4,02 Гбайт (91%)
  35. Библиотека кодирования : x265 3.2.1+1-b5c86a64bbbe:[Windows][MSVC 1923][64 bit] 10bit
  36. Настройки программы : cpuid=1111039 / frame-threads=3 / numa-pools=12 / wpp / no-pmode / no-pme / no-psnr / no-ssim / log-level=2 / input-csp=1 / input-res=1920x1080 / interlace=0 / total-frames=94241 / level-idc=41 / high-tier=1 / uhd-bd=0 / ref=5 / no-allow-non-conformance / no-repeat-headers / annexb / no-aud / no-hrd / info / hash=0 / no-temporal-layers / open-gop / min-keyint=23 / keyint=240 / gop-lookahead=0 / bframes=16 / b-adapt=2 / b-pyramid / bframe-bias=0 / rc-lookahead=60 / lookahead-slices=4 / scenecut=40 / radl=0 / no-splice / no-intra-refresh / ctu=32 / min-cu-size=8 / rect / amp / max-tu-size=32 / tu-inter-depth=4 / tu-intra-depth=4 / limit-tu=1 / rdoq-level=2 / dynamic-rd=0.00 / no-ssim-rd / signhide / no-tskip / nr-intra=0 / nr-inter=0 / no-constrained-intra / no-strong-intra-smoothing / max-merge=4 / limit-refs=2 / limit-modes / me=3 / subme=7 / merange=57 / temporal-mvp / no-hme / weightp / weightb / no-analyze-src-pics / deblock=-3:-3 / no-sao / no-sao-non-deblock / rd=6 / selective-sao=0 / no-early-skip / no-rskip / no-fast-intra / no-tskip-fast / no-cu-lossless / no-b-intra / no-splitrd-skip / rdpenalty=0 / psy-rd=2.00 / psy-rdoq=1.00 / no-rd-refine / no-lossless / cbqpoffs=0 / crqpoffs=0 / rc=crf / crf=20.0 / qcomp=0.65 / qpstep=4 / stats-write=0 / stats-read=0 / vbv-maxrate=50000 / vbv-bufsize=50000 / vbv-init=0.9 / crf-max=0.0 / crf-min=0.0 / ipratio=1.40 / pbratio=1.30 / aq-mode=1 / aq-strength=1.00 / no-cutree / zone-count=0 / no-strict-cbr / qg-size=32 / no-rc-grain / qpmax=69 / qpmin=0 / no-const-vbv / sar=1 / overscan=0 / videoformat=5 / range=0 / colorprim=1 / transfer=1 / colormatrix=1 / chromaloc=0 / display-window=0 / cll=0,0 / min-luma=0 / max-luma=1023 / log2-max-poc-lsb=8 / vui-timing-info / vui-hrd-info / slices=1 / no-opt-qp-pps / no-opt-ref-list-length-pps / no-multi-pass-opt-rps / scenecut-bias=0.05 / no-opt-cu-delta-qp / no-aq-motion / no-hdr / no-hdr-opt / no-dhdr10-opt / no-idr-recovery-sei / analysis-reuse-level=5 / scale-factor=0 / refine-intra=0 / refine-inter=0 / refine-mv=1 / refine-ctu-distortion=0 / no-limit-sao / ctu-info=0 / no-lowpass-dct / refine-analysis-type=0 / copy-pic=1 / max-ausize-factor=1.0 / no-dynamic-refine / no-single-sei / no-hevc-aq / no-svt / no-field / qp-adaptation-range=1.00
  37. Default : Да
  38. Forced : Нет
  39. Цветовой диапазон : Limited
  40. Основные цвета : BT.709
  41. Характеристики трансфера : BT.709
  42. Коэффициенты матрицы : BT.709
  43.  
  44. Аудио #1
  45. Идентификатор : 2
  46. Формат : AC-3
  47. Формат/Информация : Audio Coding 3
  48. Идентификатор кодека : A_AC3
  49. Продолжительность : 1 ч. 9 м.
  50. Вид битрейта : Постоянный
  51. Битрейт : 192 Кбит/сек
  52. Каналы : 2 канала
  53. Расположение каналов : Front: L R
  54. Частота : 48,0 КГц
  55. Частота кадров : 31,250 кадров/сек (1536 SPF)
  56. Битовая глубина : 16 бит
  57. Метод сжатия : С потерями
  58. Размер потока : 94,9 Мбайт (2%)
  59. Заголовок : Профессиональный (дублированный)
  60. Язык : Russian
  61. ServiceKind/Strin : Complete Main
  62. Default : Да
  63. Forced : Нет
  64.  
  65. Аудио #2
  66. Идентификатор : 3
  67. Формат : AC-3
  68. Формат/Информация : Audio Coding 3
  69. Идентификатор кодека : A_AC3
  70. Продолжительность : 1 ч. 9 м.
  71. Вид битрейта : Постоянный
  72. Битрейт : 192 Кбит/сек
  73. Каналы : 2 канала
  74. Расположение каналов : Front: L R
  75. Частота : 48,0 КГц
  76. Частота кадров : 31,250 кадров/сек (1536 SPF)
  77. Битовая глубина : 16 бит
  78. Метод сжатия : С потерями
  79. Размер потока : 94,9 Мбайт (2%)
  80. Заголовок : Авторский (одноголосый закадровый) Андрей Гаврилов
  81. Язык : Russian
  82. ServiceKind/Strin : Complete Main
  83. Default : Нет
  84. Forced : Нет
  85.  
  86. Аудио #3
  87. Идентификатор : 4
  88. Формат : AC-3
  89. Формат/Информация : Audio Coding 3
  90. Идентификатор кодека : A_AC3
  91. Продолжительность : 1 ч. 9 м.
  92. Вид битрейта : Постоянный
  93. Битрейт : 448 Кбит/сек
  94. Каналы : 6 каналов
  95. Расположение каналов : Front: L C R, Side: L R, LFE
  96. Частота : 48,0 КГц
  97. Частота кадров : 31,250 кадров/сек (1536 SPF)
  98. Битовая глубина : 16 бит
  99. Метод сжатия : С потерями
  100. Размер потока : 222 Мбайт (5%)
  101. Заголовок : Original
  102. Язык : English
  103. ServiceKind/Strin : Complete Main
  104. Default : Нет
  105. Forced : Нет
  106.  
  107. Текст #1
  108. Идентификатор : 5
  109. Формат : UTF-8
  110. Идентификатор кодека : S_TEXT/UTF8
  111. Идентификатор кодека/Информация : UTF-8 Plain Text
  112. Продолжительность : 1 ч. 5 м.
  113. Битрейт : 98 бит/сек
  114. ElementCount : 1080
  115. Размер потока : 47,1 Кбайт (0%)
  116. Заголовок : Rus
  117. Язык : Russian
  118. Default : Нет
  119. Forced : Нет
  120.  
  121. Текст #2
  122. Идентификатор : 6
  123. Формат : UTF-8
  124. Идентификатор кодека : S_TEXT/UTF8
  125. Идентификатор кодека/Информация : UTF-8 Plain Text
  126. Продолжительность : 1 ч. 8 м.
  127. Битрейт : 58 бит/сек
  128. ElementCount : 975
  129. Размер потока : 29,4 Кбайт (0%)
  130. Заголовок : Eng
  131. Язык : English
  132. Default : Нет
  133. Forced : Нет
  134.  
  135. Меню
  136. 00:00:00.000 : :Глава 01
  137. 00:08:20.000 : :Глава 02
  138. 00:16:40.000 : :Глава 03
  139. 00:25:00.000 : :Глава 04
  140. 00:33:20.000 : :Глава 05
  141. 00:41:40.000 : :Глава 06
  142. 00:50:00.000 : :Глава 07
  143. 00:58:20.000 : :Глава 08
  144. 01:06:40.000 : :Глава 09
RAW Paste Data