Guest User

Untitled

a guest
Sep 11th, 2020
107
Never
Not a member of Pastebin yet? Sign Up, it unlocks many cool features!
  1. General
  2. Unique ID : 105970454267566779553119373976247646533 (0x4FB92AC7AEE07E905C7A80FA2F8EB945)
  3. Complete name : E:\Мои рипы\Побег невозможен.1994.BDRemux.1080p.R.G. Goldenshara.mkv
  4. Format : Matroska
  5. Format version : Version 4
  6. File size : 29.8 GiB
  7. Duration : 1 h 58 min
  8. Overall bit rate mode : Variable
  9. Overall bit rate : 36.1 Mb/s
  10. Movie name : Escape.from.Absolom.1994
  11. Encoded date : UTC 2020-09-11 23:23:00
  12. Writing application : mkvmerge v46.0.0 ('No Deeper Escape') 64-bit
  13. Writing library : libebml v1.3.10 + libmatroska v1.5.2
  14.  
  15. Video
  16. ID : 1
  17. ID in the original source m : 4113 (0x1011)
  18. Format : AVC
  19. Format/Info : Advanced Video Codec
  20. Format profile : High@L4.1
  21. Format settings : CABAC / 3 Ref Frames
  22. Format settings, CABAC : Yes
  23. Format settings, Reference : 3 frames
  24. Codec ID : V_MPEG4/ISO/AVC
  25. Duration : 1 h 58 min
  26. Bit rate mode : Variable
  27. Bit rate : 33.0 Mb/s
  28. Maximum bit rate : 35.0 Mb/s
  29. Width : 1 920 pixels
  30. Height : 1 080 pixels
  31. Display aspect ratio : 16:9
  32. Frame rate mode : Constant
  33. Frame rate : 23.976 (24000/1001) FPS
  34. Standard : NTSC
  35. Color space : YUV
  36. Chroma subsampling : 4:2:0
  37. Bit depth : 8 bits
  38. Scan type : Progressive
  39. Bits/(Pixel*Frame) : 0.664
  40. Stream size : 27.1 GiB (91%)
  41. Writing library : x264pro - Adobe CS Exporter Plug-in
  42. Encoding settings : cabac=1 / ref=4 / deblock=1:-2:-2 / analyse=0x3:0x133 / me=umh / subme=10 / psy=1 / psy_rd=1.00:0.25 / mixed_ref=1 / me_range=24 / chroma_me=1 / trellis=2 / 8x8dct=1 / cqm=0 / deadzone=6,6 / fast_pskip=1 / chroma_qp_offset=-4 / threads=48 / lookahead_threads=8 / sliced_threads=0 / slices=4 / nr=0 / decimate=0 / interlaced=0 / bluray_compat=1 / constrained_intra=0 / bframes=3 / b_pyramid=1 / b_adapt=2 / b_bias=0 / direct=3 / weightb=1 / open_gop=0 / weightp=1 / keyint=24 / keyint_min=1 / scenecut=40 / intra_refresh=0 / rc_lookahead=24 / rc=2pass / mbtree=1 / bitrate=33000 / ratetol=1.0 / qcomp=0.80 / qpmin=0 / qpmax=69 / qpstep=4 / cplxblur=20.0 / qblur=0.5 / vbv_maxrate=35000 / vbv_bufsize=30000 / nal_hrd=vbr / ip_ratio=1.10 / aq=1:1.00
  43. Language : English
  44. Default : Yes
  45. Forced : No
  46. Color range : Limited
  47. Color primaries : BT.709
  48. Transfer characteristics : BT.709
  49. Matrix coefficients : BT.709
  50. Original source medium : Blu-ray
  51.  
  52. Audio #1
  53. ID : 2
  54. Format : AC-3
  55. Format/Info : Audio Coding 3
  56. Commercial name : Dolby Digital
  57. Codec ID : A_AC3
  58. Duration : 1 h 58 min
  59. Bit rate mode : Constant
  60. Bit rate : 192 kb/s
  61. Channel(s) : 2 channels
  62. Channel layout : L R
  63. Sampling rate : 48.0 kHz
  64. Frame rate : 31.250 FPS (1536 SPF)
  65. Compression mode : Lossy
  66. Stream size : 162 MiB (1%)
  67. Title : MVO Видеосервис
  68. Language : Russian
  69. Service kind : Complete Main
  70. Default : Yes
  71. Forced : No
  72.  
  73. Audio #2
  74. ID : 3
  75. Format : AC-3
  76. Format/Info : Audio Coding 3
  77. Commercial name : Dolby Digital
  78. Codec ID : A_AC3
  79. Duration : 1 h 58 min
  80. Bit rate mode : Constant
  81. Bit rate : 192 kb/s
  82. Channel(s) : 2 channels
  83. Channel layout : L R
  84. Sampling rate : 48.0 kHz
  85. Frame rate : 31.250 FPS (1536 SPF)
  86. Compression mode : Lossy
  87. Stream size : 162 MiB (1%)
  88. Title : MVO OPT
  89. Language : Russian
  90. Service kind : Complete Main
  91. Default : No
  92. Forced : No
  93.  
  94. Audio #3
  95. ID : 4
  96. Format : AC-3
  97. Format/Info : Audio Coding 3
  98. Commercial name : Dolby Digital
  99. Codec ID : A_AC3
  100. Duration : 1 h 58 min
  101. Bit rate mode : Constant
  102. Bit rate : 192 kb/s
  103. Channel(s) : 2 channels
  104. Channel layout : L R
  105. Sampling rate : 48.0 kHz
  106. Frame rate : 31.250 FPS (1536 SPF)
  107. Compression mode : Lossy
  108. Stream size : 162 MiB (1%)
  109. Title : AVO Михалев
  110. Language : Russian
  111. Service kind : Complete Main
  112. Default : No
  113. Forced : No
  114.  
  115. Audio #4
  116. ID : 5
  117. Format : AC-3
  118. Format/Info : Audio Coding 3
  119. Commercial name : Dolby Digital
  120. Codec ID : A_AC3
  121. Duration : 1 h 58 min
  122. Bit rate mode : Constant
  123. Bit rate : 192 kb/s
  124. Channel(s) : 2 channels
  125. Channel layout : L R
  126. Sampling rate : 48.0 kHz
  127. Frame rate : 31.250 FPS (1536 SPF)
  128. Compression mode : Lossy
  129. Stream size : 162 MiB (1%)
  130. Title : AVO Пронин
  131. Language : Russian
  132. Service kind : Complete Main
  133. Default : No
  134. Forced : No
  135.  
  136. Audio #5
  137. ID : 6
  138. Format : AC-3
  139. Format/Info : Audio Coding 3
  140. Commercial name : Dolby Digital
  141. Codec ID : A_AC3
  142. Duration : 1 h 58 min
  143. Bit rate mode : Constant
  144. Bit rate : 192 kb/s
  145. Channel(s) : 2 channels
  146. Channel layout : L R
  147. Sampling rate : 48.0 kHz
  148. Frame rate : 31.250 FPS (1536 SPF)
  149. Compression mode : Lossy
  150. Stream size : 162 MiB (1%)
  151. Title : AVO Чадов
  152. Language : Russian
  153. Service kind : Complete Main
  154. Default : No
  155. Forced : No
  156.  
  157. Audio #6
  158. ID : 7
  159. ID in the original source m : 4352 (0x1100)
  160. Format : DTS XLL
  161. Format/Info : Digital Theater Systems
  162. Commercial name : DTS-HD Master Audio
  163. Codec ID : A_DTS
  164. Duration : 1 h 58 min
  165. Bit rate mode : Variable
  166. Bit rate : 1 878 kb/s
  167. Channel(s) : 2 channels
  168. Channel layout : L R
  169. Sampling rate : 48.0 kHz
  170. Frame rate : 93.750 FPS (512 SPF)
  171. Bit depth : 24 bits
  172. Compression mode : Lossless
  173. Stream size : 1.55 GiB (5%)
  174. Language : English
  175. Default : No
  176. Forced : No
  177. Original source medium : Blu-ray
  178.  
  179. Audio #7
  180. ID : 8
  181. ID in the original source m : 4354 (0x1102)
  182. Format : AC-3
  183. Format/Info : Audio Coding 3
  184. Commercial name : Dolby Digital
  185. Codec ID : A_AC3
  186. Duration : 1 h 58 min
  187. Bit rate mode : Constant
  188. Bit rate : 384 kb/s
  189. Channel(s) : 2 channels
  190. Channel layout : L R
  191. Sampling rate : 48.0 kHz
  192. Frame rate : 31.250 FPS (1536 SPF)
  193. Compression mode : Lossy
  194. Stream size : 324 MiB (1%)
  195. Language : German
  196. Service kind : Complete Main
  197. Default : No
  198. Forced : No
  199. Original source medium : Blu-ray
  200.  
  201. Text
  202. ID : 9
  203. Format : UTF-8
  204. Codec ID : S_TEXT/UTF8
  205. Codec ID/Info : UTF-8 Plain Text
  206. Duration : 1 h 51 min
  207. Bit rate : 29 b/s
  208. Count of elements : 674
  209. Stream size : 24.4 KiB (0%)
  210. Title : Full
  211. Language : English
  212. Default : No
  213. Forced : No
  214.  
  215. Menu
  216. 00:00:00.000 : en:Глава 01
  217. 00:00:37.704 : en:Глава 02
  218. 00:11:31.732 : en:Глава 03
  219. 00:13:48.702 : en:Глава 04
  220. 00:24:22.961 : en:Глава 05
  221. 00:34:43.998 : en:Глава 06
  222. 00:45:02.324 : en:Глава 07
  223. 00:56:30.011 : en:Глава 08
  224. 01:05:54.450 : en:Глава 09
  225. 01:21:51.197 : en:Глава 10
  226. 01:25:05.767 : en:Глава 11
  227. 01:42:31.603 : en:Глава 12
  228. 01:53:51.366 : en:Глава 13
  229.  
  230.  
RAW Paste Data