This week only. Pastebin PRO Accounts Christmas Special! Don't miss out!Want more features on Pastebin? Sign Up, it's FREE!
Guest

Hotel Impossible S03E08 In The Doghouse DSR x264-NY2

By: a guest on Oct 1st, 2013  |  syntax: None  |  size: 4.60 KB  |  views: 24  |  expires: Never
download  |  raw  |  embed  |  report abuse  |  print
Text below is selected. Please press Ctrl+C to copy to your clipboard. (⌘+C on Mac)
  1. Hotel Impossible S03E08 In The Doghouse DSR x264-NY2
  2.   Release Name: Hotel Impossible S03E08 In The Doghouse DSR x264-NY2
  3.                         MP4 / x264 / DSR / SD / | 303 MiB# of Seasons:2Country: USAir Day: Monday Air Time: 10:00 PM First Aired: 2012-04-09Rating: Series Status: Returning SeriesRuntime: 60 MinutesNetwork: Travel ChannelClassification: RealityTVDB Rating: 0.0External Links:  
  4.                         Episode Name: In the Doghouse
  5. Season: 3
  6. Episode: 8
  7. Aired: 2013-09-30
  8.  
  9. Episode Overview:
  10. Tammy and Terry are in big trouble: their hotel, the Beachfront Inn, has been losing money for the last nine years despite a prime location. Anthony arrives and discovers that their pet-friendly policy is inconsistent and they're not ready when a storm blows in off of Lake Michigan.General
  11. Complete name                            : Hotel.Impossible.S03E08.In.The.Doghouse.WS.DSR.x264-[NY2].mp4
  12. Format                                   : MPEG-4
  13. Format profile                           : Base Media / Version 2
  14. Codec ID                                 : mp42
  15. File size                                : 303 MiB
  16. Duration                                 : 42mn 1s
  17. Overall bit rate mode                    : Variable
  18. Overall bit rate                         : 1 007 Kbps
  19. Encoded date                             : UTC 2013-10-01 06:24:42
  20. Tagged date                              : UTC 2013-10-01 06:34:57
  21. Writing application                      : HandBrake 0.9.9 2013051800
  22.  
  23. Video
  24. ID                                       : 1
  25. Format                                   : AVC
  26. Format/Info                              : Advanced Video Codec
  27. Format profile                           : High@L3.0
  28. Format settings, CABAC                   : No
  29. Format settings, ReFrames                : 4 frames
  30. Codec ID                                 : avc1
  31. Codec ID/Info                            : Advanced Video Coding
  32. Duration                                 : 42mn 1s
  33. Bit rate mode                            : Variable
  34. Bit rate                                 : 847 Kbps
  35. Width                                    : 686 pixels
  36. Height                                   : 344 pixels
  37. Display aspect ratio                     : 16:9
  38. Frame rate mode                          : Constant
  39. Frame rate                               : 29.970 fps
  40. Color space                              : YUV
  41. Chroma subsampling                       : 4:2:0
  42. Bit depth                                : 8 bits
  43. Scan type                                : Progressive
  44. Bits/(Pixel*Frame)                       : 0.120
  45. Stream size                              : 254 MiB (84%)
  46. Writing library                          : x264 core 130 r2273 b3065e6
  47. Encoding settings                        : cabac=0 / ref=3 / deblock=1:0:0 / analyse=0x3:0x113 / me=hex / subme=7 / psy=1 / psy_rd=1.00:0.00 / mixed_ref=1 / me_range=16 / chroma_me=1 / trellis=1 / 8x8dct=1 / cqm=0 / deadzone=21,11 / fast_pskip=1 / chroma_qp_offset=-2 / threads=12 / lookahead_threads=2 / sliced_threads=0 / nr=0 / decimate=1 / interlaced=0 / bluray_compat=0 / constrained_intra=0 / bframes=3 / b_pyramid=2 / b_adapt=1 / b_bias=0 / direct=1 / weightb=1 / open_gop=0 / weightp=0 / keyint=300 / keyint_min=30 / scenecut=40 / intra_refresh=0 / rc_lookahead=40 / rc=crf / mbtree=1 / crf=22.0 / qcomp=0.60 / qpmin=0 / qpmax=69 / qpstep=4 / ip_ratio=1.40 / aq=1:1.00
  48. Encoded date                             : UTC 2013-10-01 06:24:42
  49. Tagged date                              : UTC 2013-10-01 06:34:55
  50. Color primaries                          : BT.601 NTSC
  51. Transfer characteristics                 : BT.709
  52. Matrix coefficients                      : BT.601
  53.  
  54. Audio
  55. ID                                       : 2
  56. Format                                   : AAC
  57. Format/Info                              : Advanced Audio Codec
  58. Format profile                           : LC
  59. Codec ID                                 : 40
  60. Duration                                 : 42mn 1s
  61. Bit rate mode                            : Variable
  62. Bit rate                                 : 155 Kbps
  63. Maximum bit rate                         : 167 Kbps
  64. Channel(s)                               : 2 channels
  65. Channel positions                        : Front: L R
  66. Sampling rate                            : 48.0 KHz
  67. Compression mode                         : Lossy
  68. Delay relative to video                  : 67ms
  69. Stream size                              : 46.6 MiB (15%)
  70. Encoded date                             : UTC 2013-10-01 06:24:42
  71. Tagged date                              : UTC 2013-10-01 06:34:54
  72.   ===== IRNIKE Direct Links =====
  73.  
  74. Download Links are Availabe at http://www.irnike.com/2013/10/hotel-impossible-s03e08-in-the-doghouse-dsr-x264-ny2/
  75.  www.irnike.com
clone this paste RAW Paste Data