Want more features on Pastebin? Sign Up, it's FREE!
Guest

Untitled

By: a guest on Dec 20th, 2012  |  syntax: None  |  size: 3.49 KB  |  views: 235  |  expires: Never
download  |  raw  |  embed  |  report abuse  |  print
Text below is selected. Please press Ctrl+C to copy to your clipboard. (⌘+C on Mac)
  1. KolyMac:2012-12-12 Bastien ninsuo$ ./ffmpeg -i clip-2012-12-12\ 11\;51\;46.mov
  2. ffmpeg version N-48019-g95eea94-tessus Copyright (c) 2000-2012 the FFmpeg developers
  3.   built on Dec 18 2012 16:39:34 with llvm-gcc 4.2.1 (LLVM build 2336.1.00)
  4.   configuration: --prefix=/Users/tessus/data/ext/ffmpeg/sw --as=yasm --extra-version=tessus --disable-shared --enable-static --disable-ffplay --disable-ffserver --enable-gpl --enable-pthreads --enable-postproc --enable-libmp3lame --enable-libtheora --enable-libvorbis --enable-libx264 --enable-libxvid --enable-libspeex --enable-bzlib --enable-zlib --enable-libopencore-amrnb --enable-libopencore-amrwb --enable-libxavs --enable-version3 --enable-libvo-aacenc --enable-libvo-amrwbenc --enable-libvpx --enable-libgsm --enable-libopus --enable-fontconfig --enable-libfreetype --enable-libass --enable-filters --enable-runtime-cpudetect
  5.   libavutil      52. 12.100 / 52. 12.100
  6.   libavcodec     54. 80.100 / 54. 80.100
  7.   libavformat    54. 49.102 / 54. 49.102
  8.   libavdevice    54.  3.102 / 54.  3.102
  9.   libavfilter     3. 28.100 /  3. 28.100
  10.   libswscale      2.  1.103 /  2.  1.103
  11.   libswresample   0. 17.102 /  0. 17.102
  12.   libpostproc    52.  2.100 / 52.  2.100
  13. Guessed Channel Layout for  Input Stream #0.1 : mono
  14. Guessed Channel Layout for  Input Stream #0.2 : mono
  15. Guessed Channel Layout for  Input Stream #0.3 : mono
  16. Guessed Channel Layout for  Input Stream #0.4 : mono
  17. Guessed Channel Layout for  Input Stream #0.5 : mono
  18. Guessed Channel Layout for  Input Stream #0.6 : mono
  19. Input #0, mov,mp4,m4a,3gp,3g2,mj2, from 'clip-2012-12-12 11;51;46.mov':
  20.   Metadata:
  21.     major_brand     : qt  
  22.     minor_version   : 537199360
  23.     compatible_brands: qt  
  24.     creation_time   : 2012-12-12 18:14:59
  25.   Duration: 00:02:44.64, start: 0.000000, bitrate: 13126 kb/s
  26.     Stream #0:0(eng): Video: mpeg2video (Main) (m2v1 / 0x3176326D), yuv420p, 720x576 [SAR 64:45 DAR 16:9], 8499 kb/s, 25 fps, 25 tbr, 2500 tbn, 50 tbc
  27.     Metadata:
  28.       creation_time   : 2012-12-12 18:14:59
  29.       handler_name    : Apple Alias Data Handler
  30.       timecode        : 00:00:00:00
  31.     Stream #0:1(eng): Audio: pcm_s16le (sowt / 0x74776F73), 48000 Hz, mono, s16, 768 kb/s
  32.     Metadata:
  33.       creation_time   : 2012-12-12 18:14:59
  34.       handler_name    : Apple Alias Data Handler
  35.     Stream #0:2(eng): Audio: pcm_s16le (sowt / 0x74776F73), 48000 Hz, mono, s16, 768 kb/s
  36.     Metadata:
  37.       creation_time   : 2012-12-12 18:14:59
  38.       handler_name    : Apple Alias Data Handler
  39.     Stream #0:3(eng): Audio: pcm_s16le (sowt / 0x74776F73), 48000 Hz, mono, s16, 768 kb/s
  40.     Metadata:
  41.       creation_time   : 2012-12-12 18:14:59
  42.       handler_name    : Apple Alias Data Handler
  43.     Stream #0:4(eng): Audio: pcm_s16le (sowt / 0x74776F73), 48000 Hz, mono, s16, 768 kb/s
  44.     Metadata:
  45.       creation_time   : 2012-12-12 18:14:59
  46.       handler_name    : Apple Alias Data Handler
  47.     Stream #0:5(eng): Audio: pcm_s16le (sowt / 0x74776F73), 48000 Hz, mono, s16, 768 kb/s
  48.     Metadata:
  49.       creation_time   : 2012-12-12 18:14:59
  50.       handler_name    : Apple Alias Data Handler
  51.     Stream #0:6(eng): Audio: pcm_s16le (sowt / 0x74776F73), 48000 Hz, mono, s16, 768 kb/s
  52.     Metadata:
  53.       creation_time   : 2012-12-12 18:14:59
  54.       handler_name    : Apple Alias Data Handler
  55.     Stream #0:7(eng): Data: none (tmcd / 0x64636D74)
  56.     Metadata:
  57.       creation_time   : 2012-12-12 18:14:59
  58.       handler_name    : Apple Alias Data Handler
  59.       timecode        : 00:00:00:00
  60. At least one output file must be specified
clone this paste RAW Paste Data