Want more features on Pastebin? Sign Up, it's FREE!
Guest

LOTR2-wyild1

By: a guest on Apr 25th, 2010  |  syntax: None  |  size: 5.81 KB  |  views: 64  |  expires: Never
download  |  raw  |  embed  |  report abuse  |  print
Text below is selected. Please press Ctrl+C to copy to your clipboard. (⌘+C on Mac)
  1. mediainfo Lord.of.The.Rings.Two.Towers.1080p.BluRay.mkv
  2. General
  3. Complete name                    : Lord.of.The.Rings.Two.Towers.1080p.BluRay.mkv
  4. Format                           : Matroska
  5. File size                        : 13.1 GiB
  6. Duration                         : 2h 59mn
  7. Overall bit rate                 : 10.5 Mbps
  8. Encoded date                     : UTC 2008-03-14 21:02:28
  9. Writing application              : mkvmerge v2.9.8 ('C'est le bon') built on Aug 21 2009 13:21:42
  10. Writing library                  : libebml v0.7.7 + libmatroska v0.8.1
  11.  
  12. Video
  13. ID                               : 1
  14. Format                           : AVC
  15. Format/Info                      : Advanced Video Codec
  16. Format profile                   : High@L4.0
  17. Format settings, CABAC           : Yes
  18. Format settings, ReFrames        : 4 frames
  19. Muxing mode                      : Container profile=Unknown@4.0
  20. Codec ID                         : V_MPEG4/ISO/AVC
  21. Duration                         : 2h 59mn
  22. Bit rate                         : 8 749 Kbps
  23. Nominal bit rate                 : 8 960 Kbps
  24. Width                            : 1 920 pixels
  25. Height                           : 800 pixels
  26. Display aspect ratio             : 2.40:1
  27. Frame rate                       : 23.976 fps
  28. Resolution                       : 24 bits
  29. Colorimetry                      : 4:2:0
  30. Scan type                        : Progressive
  31. Bits/(Pixel*Frame)               : 0.238
  32. Stream size                      : 11.0 GiB (84%)
  33. Writing library                  : x264 core 89 r1471M 1144615
  34. Encoding settings                : cabac=1 / ref=5 / deblock=1:0:0 / analyse=0x3:0x113 / me=umh / subme=7 / psy=1 / psy_rd=1.00:0.20 / mixed_ref=1 / me_range=16 / chroma_me=1 / trellis=1 / 8x8dct=1 / cqm=0 / deadzone=21,11 / fast_pskip=1 / chroma_qp_offset=-3 / threads=6 / sliced_threads=0 / nr=0 / decimate=1 / interlaced=0 / constrained_intra=0 / bframes=3 / b_pyramid=1 / b_adapt=1 / b_bias=0 / direct=3 / wpredb=1 / wpredp=2 / keyint=250 / keyint_min=25 / scenecut=40 / intra_refresh=0 / rc_lookahead=40 / rc=2pass / mbtree=1 / bitrate=8960 / ratetol=1.0 / qcomp=0.60 / qpmin=10 / qpmax=51 / qpstep=4 / cplxblur=20.0 / qblur=0.5 / ip_ratio=1.40 / aq=1:1.00 / pulldown=0
  35. Language                         : English
  36.  
  37. Audio
  38. ID                               : 2
  39. Format                           : DTS
  40. Format/Info                      : Digital Theater Systems
  41. Format profile                   : ES
  42. Codec ID                         : A_DTS
  43. Duration                         : 2h 59mn
  44. Bit rate mode                    : Constant
  45. Bit rate                         : 1 510 Kbps
  46. Channel(s)                       : 6 channels
  47. Channel positions                : Front: L C R, Surround: L R, LFE
  48. Sampling rate                    : 48.0 KHz
  49. Resolution                       : 24 bits
  50. Stream size                      : 1.89 GiB (14%)
  51. Language                         : English
  52.  
  53. Text
  54. ID                               : 3
  55. Format                           : UTF-8
  56. Codec ID                         : S_TEXT/UTF8
  57. Codec ID/Info                    : UTF-8 Plain Text
  58. Language                         : English
  59.  
  60. Menu
  61. 00:00:00.000                     : en:00:00:00.000
  62. 00:04:08.748                     : en:00:04:08.748
  63. 00:11:32.150                     : en:00:11:32.150
  64. 00:12:17.695                     : en:00:12:17.695
  65. 00:14:27.200                     : en:00:14:27.200
  66. 00:17:30.549                     : en:00:17:30.549
  67. 00:20:18.592                     : en:00:20:18.592
  68. 00:21:12.730                     : en:00:21:12.730
  69. 00:24:11.075                     : en:00:24:11.075
  70. 00:28:19.031                     : en:00:28:19.031
  71. 00:30:50.766                     : en:00:30:50.766
  72. 00:34:19.683                     : en:00:34:19.683
  73. 00:41:18.601                     : en:00:41:18.601
  74. 00:46:55.271                     : en:00:46:55.271
  75. 00:47:35.436                     : en:00:47:35.436
  76. 00:52:53.128                     : en:00:52:53.128
  77. 01:04:21.649                     : en:01:04:21.649
  78. 01:06:14.429                     : en:01:06:14.429
  79. 01:09:25.203                     : en:01:09:25.203
  80. 01:10:51.247                     : en:01:10:51.247
  81. 01:11:55.853                     : en:01:11:55.853
  82. 01:13:38.497                     : en:01:13:38.497
  83. 01:16:08.981                     : en:01:16:08.981
  84. 01:20:35.998                     : en:01:20:35.998
  85. 01:21:32.387                     : en:01:21:32.387
  86. 01:26:01.406                     : en:01:26:01.406
  87. 01:32:39.304                     : en:01:32:39.304
  88. 01:35:05.909                     : en:01:35:05.909
  89. 01:37:42.398                     : en:01:37:42.398
  90. 01:39:22.039                     : en:01:39:22.039
  91. 01:43:02.718                     : en:01:43:02.718
  92. 01:45:28.697                     : en:01:45:28.697
  93. 01:48:24.415                     : en:01:48:24.415
  94. 01:55:44.813                     : en:01:55:44.813
  95. 02:01:18.062                     : en:02:01:18.062
  96. 02:02:37.934                     : en:02:02:37.934
  97. 02:04:36.177                     : en:02:04:36.177
  98. 02:06:20.907                     : en:02:06:20.907
  99. 02:09:53.327                     : en:02:09:53.327
  100. 02:16:09.286                     : en:02:16:09.286
  101. 02:17:48.635                     : en:02:17:48.635
  102. 02:21:13.465                     : en:02:21:13.465
  103. 02:22:58.612                     : en:02:22:58.612
  104. 02:28:55.552                     : en:02:28:55.552
  105. 02:30:20.345                     : en:02:30:20.345
  106. 02:30:55.088                     : en:02:30:55.088
  107. 02:33:11.307                     : en:02:33:11.307
  108. 02:35:43.292                     : en:02:35:43.292
  109. 02:40:21.779                     : en:02:40:21.779
  110. 02:42:49.969                     : en:02:42:49.969
  111. 02:47:36.255                     : en:02:47:36.255
  112. 02:49:15.937                     : en:02:49:15.937
  113. 02:51:42.459                     : en:02:51:42.459
clone this paste RAW Paste Data