Want more features on Pastebin? Sign Up, it's FREE!
Guest

ranpha

By: a guest on Sep 12th, 2010  |  syntax: None  |  size: 2.41 KB  |  views: 1,151  |  expires: Never
download  |  raw  |  embed  |  report abuse  |  print
Text below is selected. Please press Ctrl+C to copy to your clipboard. (⌘+C on Mac)
  1. General
  2. Complete name                    : D:\drop\My Dropbox\Public\Planet_Earth_From Pole_to_Pole_1080p_sample.mkv
  3. Format                           : Matroska
  4. File size                        : 141 MiB
  5. Duration                         : 1mn 0s
  6. Overall bit rate                 : 19.7 Mbps
  7. Encoded date                     : UTC 2007-12-31 15:48:08
  8. Writing application              : mkvmerge v2.1.0 ('Another Place To Fall') built on Aug 19 2007 13:40:07
  9. Writing library                  : libebml v0.7.7 + libmatroska v0.8.1
  10.  
  11. Video
  12. ID                               : 1
  13. Format                           : AVC
  14. Format/Info                      : Advanced Video Codec
  15. Format profile                   : High@L5.1
  16. Format settings, CABAC           : Yes
  17. Format settings, ReFrames        : 16 frames
  18. Muxing mode                      : Container profile=Unknown@5.1
  19. Codec ID                         : V_MPEG4/ISO/AVC
  20. Duration                         : 1mn 0s
  21. Bit rate                         : 18.9 Mbps
  22. Width                            : 1 920 pixels
  23. Height                           : 1 080 pixels
  24. Display aspect ratio             : 16:9
  25. Frame rate                       : 23.976 fps
  26. Color space                      : YUV
  27. Chroma subsampling               : 4:2:0
  28. Bit depth                        : 8 bits
  29. Scan type                        : Progressive
  30. Bits/(Pixel*Frame)               : 0.379
  31. Stream size                      : 135 MiB (96%)
  32.  
  33. Audio
  34. ID                               : 2
  35. Format                           : AC-3
  36. Format/Info                      : Audio Coding 3
  37. Mode extension                   : CM (complete main)
  38. Codec ID                         : A_AC3
  39. Duration                         : 1mn 0s
  40. Bit rate mode                    : Constant
  41. Bit rate                         : 448 Kbps
  42. Channel(s)                       : 6 channels
  43. Channel positions                : Front: L C R, Side: L R, LFE
  44. Sampling rate                    : 48.0 KHz
  45. Bit depth                        : 16 bits
  46. Video delay                      : 8ms
  47. Stream size                      : 3.22 MiB (2%)
  48. Title                            : English (AC3)
  49. Language                         : English
  50.  
  51. Text
  52. ID                               : 3
  53. Format                           : ASS
  54. Codec ID                         : S_TEXT/ASS
  55. Codec ID/Info                    : Advanced Sub Station Alpha
  56. Language                         : English
clone this paste RAW Paste Data