Want more features on Pastebin? Sign Up, it's FREE!
Guest

[CUE] Charlix XCX - Heartbreaks And Earthquakes

By: a guest on Jun 13th, 2012  |  syntax: None  |  size: 1.50 KB  |  views: 181  |  expires: Never
download  |  raw  |  embed  |  report abuse  |  print
Text below is selected. Please press Ctrl+C to copy to your clipboard. (⌘+C on Mac)
  1. REM DATE 2012
  2. TITLE "Heartbreaks And Earthquakes"
  3. FILE "01-charli_xcx--heartbreaks_and_earthquakes.mp3" WAVE
  4.   TRACK 01 AUDIO
  5.     TITLE "Beyond The Black Rainbow (Intro)"
  6.     PERFORMER "Charli XCX"
  7.     INDEX 01 00:00:00
  8.   TRACK 02 AUDIO
  9.     TITLE "Champagne Coast"
  10.     PERFORMER "Charli XCX / Blood Orange"
  11.     INDEX 01 00:23:08
  12.   TRACK 03 AUDIO
  13.     TITLE "How Can I"
  14.     PERFORMER "Charli XCX"
  15.     INDEX 01 03:19:11
  16.   TRACK 04 AUDIO
  17.     TITLE "Grins"
  18.     PERFORMER "Charli XCX / Blood Diamonds"
  19.     INDEX 01 04:30:23
  20.   TRACK 05 AUDIO
  21.     TITLE "The Craft (Interlude)"
  22.     PERFORMER "Charli XCX"
  23.     INDEX 01 08:20:20
  24.   TRACK 06 AUDIO
  25.     TITLE "So Far Away"
  26.     PERFORMER "Charli XCX / Paul White"
  27.     INDEX 01 08:43:58
  28.   TRACK 07 AUDIO
  29.     TITLE "Kill Bill (Interlude)"
  30.     PERFORMER "Charli XCX"
  31.     INDEX 01 11:38:59
  32.   TRACK 08 AUDIO
  33.     TITLE "Dreams Money Can Buy"
  34.     PERFORMER "Charli XCX / Drake / Jai Paul"
  35.     INDEX 01 12:08:66
  36.   TRACK 09 AUDIO
  37.     TITLE "Cruel Intentions (Interlude)"
  38.     PERFORMER "Charli XCX"
  39.     INDEX 01 15:08:57
  40.   TRACK 10 AUDIO
  41.     TITLE "Lock You Up"
  42.     PERFORMER "Charli XCX"
  43.     INDEX 01 15:57:46
  44.   TRACK 11 AUDIO
  45.     TITLE "Spoons"
  46.     PERFORMER "Charli XCX / Rudimental"
  47.     INDEX 01 17:14:44
  48.   TRACK 12 AUDIO
  49.     TITLE "American Beauty (Interlude)"
  50.     PERFORMER "Charli XCX"
  51.     INDEX 01 19:38:49
  52.   TRACK 13 AUDIO
  53.     TITLE "You’re The One (Odd Future’s The Internet Remix feat. Mike G)"
  54.     PERFORMER "Charli XCX"
  55.     INDEX 01 19:51:54
clone this paste RAW Paste Data