This week only. Pastebin PRO Accounts Christmas Special! Don't miss out!Want more features on Pastebin? Sign Up, it's FREE!
Guest

mediainfo

By: a guest on Aug 22nd, 2010  |  syntax: None  |  size: 3.30 KB  |  views: 70  |  expires: Never
download  |  raw  |  embed  |  report abuse  |  print
Text below is selected. Please press Ctrl+C to copy to your clipboard. (⌘+C on Mac)
  1. General
  2. Complete name                    : H:\My Videos\Test Clips\I Am Legend - Trailer.mp4
  3. Format                           : MPEG-4
  4. Format profile                   : Base Media
  5. Codec ID                         : isom
  6. File size                        : 120 MiB
  7. Duration                         : 2mn 3s
  8. Overall bit rate                 : 8 145 Kbps
  9. Movie name                       : I Am Legend - Trailer
  10. Performer                        : Warner Bros.
  11. Genre                            : Science-Fiction
  12. Encoded date                     : 2007
  13. Tagged date                      : UTC 2007-11-27 01:10:05
  14. Writing application              : MeGUI
  15. Cover                            : Yes
  16.  
  17. Video
  18. ID                               : 1
  19. Format                           : AVC
  20. Format/Info                      : Advanced Video Codec
  21. Format profile                   : High@L4.1
  22. Format settings, CABAC           : Yes
  23. Format settings, ReFrames        : 4 frames
  24. Codec ID                         : avc1
  25. Codec ID/Info                    : Advanced Video Coding
  26. Duration                         : 2mn 3s
  27. Bit rate mode                    : Variable
  28. Bit rate                         : 7 910 Kbps
  29. Maximum bit rate                 : 24.9 Mbps
  30. Width                            : 1 920 pixels
  31. Height                           : 816 pixels
  32. Display aspect ratio             : 2.35:1
  33. Frame rate mode                  : Constant
  34. Frame rate                       : 23.976 fps
  35. Color space                      : YUV
  36. Chroma subsampling               : 4:2:0
  37. Bit depth                        : 8 bits
  38. Scan type                        : Progressive
  39. Bits/(Pixel*Frame)               : 0.211
  40. Stream size                      : 116 MiB (97%)
  41. Writing library                  : x264 core 57 svn-699C
  42. Encoding settings                : cabac=1 / ref=3 / deblock=1:0:0 / analyse=0x3:0x113 / me=umh / fpel_cmp=sad / subme=6 / me-prepass=0 / brdo=1 / mixed_ref=1 / me_range=12 / chroma_me=1 / trellis=1 / 8x8dct=1 / cqm=0 / deadzone=21,11 / chroma_qp_offset=0 / threads=1 / nr=0 / decimate=1 / mbaff=0 / bframes=3 / b_pyramid=0 / b_adapt=1 / b_bias=0 / direct=3 / wpredb=1 / bime=1 / keyint=250 / keyint_min=25 / scenecut=40 / rc=2pass / bitrate=7910 / ratetol=1.0 / rceq='blurCplx^(1-qComp)' / qcomp=0.60 / qpmin=10 / qpmax=51 / qpstep=4 / cplxblur=20.0 / qblur=0.5 / vbv_maxrate=25000 / vbv_bufsize=9000 / ip_ratio=1.40 / pb_ratio=1.30
  43. Encoded date                     : UTC 2007-11-26 14:25:07
  44. Tagged date                      : UTC 2007-11-27 01:10:12
  45.  
  46. Audio
  47. ID                               : 2
  48. Format                           : AAC
  49. Format/Info                      : Advanced Audio Codec
  50. Format version                   : Version 4
  51. Format profile                   : LC
  52. Format settings, SBR             : No
  53. Codec ID                         : 40
  54. Duration                         : 2mn 3s
  55. Bit rate mode                    : Variable
  56. Bit rate                         : 258 Kbps
  57. Maximum bit rate                 : 365 Kbps
  58. Channel(s)                       : 6 channels
  59. Channel positions                : Front: L C R, Side: L R, LFE
  60. Sampling rate                    : 48.0 KHz
  61. Stream size                      : 3.80 MiB (3%)
  62. Encoded date                     : UTC 2007-11-27 01:10:11
  63. Tagged date                      : UTC 2007-11-27 01:10:12
clone this paste RAW Paste Data