Want more features on Pastebin? Sign Up, it's FREE!
Guest

Untitled

By: a guest on Feb 6th, 2012  |  syntax: None  |  size: 1.56 KB  |  views: 85  |  expires: Never
download  |  raw  |  embed  |  report abuse  |  print
Text below is selected. Please press Ctrl+C to copy to your clipboard. (⌘+C on Mac)
  1. FFmpeg version CVS, Copyright (c) 2000-2004 Fabrice Bellard
  2. Mac OSX universal build for ffmpegX
  3.   libavutil version: 49.0.0
  4.   libavcodec version: 51.9.0
  5.   libavformat version: 50.4.0
  6. [matroska @ 0x5597b8]Ignoring seekhead entry for ID=0x1549a966
  7. [matroska @ 0x5597b8]Ignoring seekhead entry for ID=0x1654ae6b
  8. [matroska @ 0x5597b8]Ignoring seekhead entry for ID=0x114d9b74
  9. [matroska @ 0x5597b8]Unknown entry 0x73a4 in info header
  10. [matroska @ 0x5597b8]Unknown track header entry 0x55aa - ignoring
  11. [matroska @ 0x5597b8]Unknown track header entry 0x23314f - ignoring
  12. [matroska @ 0x5597b8]Unknown track header entry 0x55ee - ignoring
  13. [matroska @ 0x5597b8]Unknown track header entry 0xaa - ignoring
  14. [matroska @ 0x5597b8]Unknown track header entry 0x55aa - ignoring
  15. [matroska @ 0x5597b8]Unknown track header entry 0x23314f - ignoring
  16. [matroska @ 0x5597b8]Unknown track header entry 0x55ee - ignoring
  17. [matroska @ 0x5597b8]Unknown track header entry 0xaa - ignoring
  18. Seems that stream 0 comes from film source: 1000.00 (1000000000/1000000) -> 0.08 (1/12)
  19. Input #0, matroska, from '/Users/[snip]/movie.mkv':
  20.   Duration: 02:01:50.3, bitrate: N/A
  21.   Stream #0.0,  0.08 fps(r): Video: h264, yuv420p, 1920x800
  22.   Stream #0.1: Audio: 0x0000, 48000 Hz, 5:1
  23. Output #0, dv, to '/Users/[snip].mkv.ff.dv':
  24.   Stream #0.0, 29.97 fps(c): Video: dvvideo, yuv420p, 720x480, q=2-15, 25000 kb/s
  25.   Stream #0.1: Audio: pcm_s16le, 48000 Hz, stereo, 1536 kb/s
  26. Stream mapping:
  27.   Stream #0.0 -> #0.0
  28.   Stream #0.1 -> #0.1
  29. Mon Feb  6 06:17:06 PST 2012
  30. Unsupported codec (id=86021) for input stream #0.1
clone this paste RAW Paste Data