Want more features on Pastebin? Sign Up, it's FREE!
Guest

ffmpeg_log

By: a guest on Jun 22nd, 2012  |  syntax: None  |  size: 4.15 KB  |  views: 14  |  expires: Never
download  |  raw  |  embed  |  report abuse  |  print
Text below is selected. Please press Ctrl+C to copy to your clipboard. (⌘+C on Mac)
  1. ffmpeg started on 2012-06-22 at 14:40:04
  2. Report written to "ffmpeg-20120622-144004.log"
  3. Command line:
  4. ./ffmpeg -v 9 -loglevel 99 -report -f alsa -ar 8000 -ac 1 -i hw:1,0 -ar 8000 -acodec pcm_alaw -ab 64k -f rtp rtp://127.0.0.1:1234
  5. ffmpeg version N-41796-g1bb30d0 Copyright (c) 2000-2012 the FFmpeg developers
  6.   built on Jun 22 2012 10:56:44 with gcc 4.6.3
  7.   configuration: --enable-libx264 --enable-gpl
  8.   libavutil      51. 59.100 / 51. 59.100
  9.   libavcodec     54. 29.100 / 54. 29.100
  10.   libavformat    54. 10.100 / 54. 10.100
  11.   libavdevice    54.  0.100 / 54.  0.100
  12.   libavfilter     2. 82.100 /  2. 82.100
  13.   libswscale      2.  1.100 /  2.  1.100
  14.   libswresample   0. 15.100 /  0. 15.100
  15.   libpostproc    52.  0.100 / 52.  0.100
  16. [alsa @ 0xa060a60] All info found
  17. [alsa @ 0xa060a60] Estimating duration from bitrate, this may be inaccurate
  18. Guessed Channel Layout for  Input Stream #0.0 : mono
  19. Input #0, alsa, from 'hw:1,0':
  20.   Duration: N/A, start: 1340368804.551118, bitrate: 705 kb/s
  21.     Stream #0:0, 1, 1/1000000: Audio: pcm_s16le, 44100 Hz, mono, s16, 705 kb/s
  22. [abuffer source @ 0xa05efc0] Setting entry with key 'time_base' to value '1/1000000'
  23. [abuffer source @ 0xa05efc0] Setting entry with key 'sample_rate' to value '44100'
  24. [abuffer source @ 0xa05efc0] Setting entry with key 'sample_fmt' to value 's16'
  25. [abuffer source @ 0xa05efc0] Setting entry with key 'channel_layout' to value '0x4'
  26. [abuffer @ 0xa05f400] tb:1/1000000 samplefmt:s16 samplerate: 44100 ch layout:0x4
  27. [aformat @ 0xa05f480] Setting entry with key 'sample_fmts' to value 's16'
  28. [aformat @ 0xa05f480] Setting entry with key 'sample_rates' to value '8000'
  29. [aformat @ 0xa05f5e0] auto-inserting filter 'auto-inserted resampler 0' between the filter 'Parsed_anull_0' and the filter 'aformat'
  30. [auto-inserted resampler 0 @ 0xa05fa80] chl:mono fmt:s16 r:44100Hz -> chl:mono fmt:s16 r:8000Hz
  31. [rtp @ 0xa05daa0] Cannot respect max delay: frame size = 0
  32. Output #0, rtp, to 'rtp://127.0.0.1:1234':
  33.   Metadata:
  34.     encoder         : Lavf54.10.100
  35.     Stream #0:0, 0, 1/8000: Audio: pcm_alaw, 8000 Hz, mono, s16, 64 kb/s
  36. Stream mapping:
  37.   Stream #0:0 -> #0:0 (pcm_s16le -> pcm_alaw)
  38. Press [q] to stop, [?] for help
  39. size=       9kB time=00:00:00.56 bitrate= 133.9kbits/s    
  40. size=      17kB time=00:00:01.06 bitrate= 134.1kbits/s    
  41. size=      26kB time=00:00:01.57 bitrate= 134.0kbits/s    
  42. size=      34kB time=00:00:02.07 bitrate= 134.0kbits/s    
  43. size=      42kB time=00:00:02.58 bitrate= 134.0kbits/s    
  44. size=      50kB time=00:00:03.08 bitrate= 134.0kbits/s    
  45. size=      59kB time=00:00:03.59 bitrate= 134.0kbits/s    
  46. size=      67kB time=00:00:04.10 bitrate= 134.0kbits/s    
  47. size=      75kB time=00:00:04.60 bitrate= 134.1kbits/s    
  48. size=      84kB time=00:00:05.11 bitrate= 134.1kbits/s    
  49. size=      92kB time=00:00:05.62 bitrate= 134.1kbits/s    
  50. size=     100kB time=00:00:06.13 bitrate= 134.1kbits/s    
  51. size=     109kB time=00:00:06.64 bitrate= 134.1kbits/s    
  52. size=     117kB time=00:00:07.14 bitrate= 134.1kbits/s    
  53. size=     125kB time=00:00:07.65 bitrate= 134.0kbits/s    
  54. size=     133kB time=00:00:08.15 bitrate= 134.1kbits/s    
  55. size=     142kB time=00:00:08.65 bitrate= 134.1kbits/s    
  56. size=     150kB time=00:00:09.15 bitrate= 134.1kbits/s    
  57. size=     158kB time=00:00:09.65 bitrate= 134.1kbits/s    
  58. size=     166kB time=00:00:10.16 bitrate= 134.1kbits/s    
  59. size=     175kB time=00:00:10.67 bitrate= 134.1kbits/s    
  60. size=     183kB time=00:00:11.17 bitrate= 134.1kbits/s    
  61. size=     191kB time=00:00:11.67 bitrate= 134.1kbits/s    
  62. size=     199kB time=00:00:12.18 bitrate= 134.1kbits/s    
  63. size=     208kB time=00:00:12.68 bitrate= 134.1kbits/s    
  64. size=     216kB time=00:00:13.18 bitrate= 134.1kbits/s    
  65. size=     224kB time=00:00:13.69 bitrate= 134.1kbits/s    
  66. size=     232kB time=00:00:14.19 bitrate= 134.1kbits/s    
  67. size=     241kB time=00:00:14.70 bitrate= 134.1kbits/s    
  68. size=     249kB time=00:00:15.20 bitrate= 134.1kbits/s    
  69. size=     257kB time=00:00:15.70 bitrate= 134.1kbits/s    
  70. size=     265kB time=00:00:16.21 bitrate= 134.1kbits/s    
  71. size=     274kB time=00:00:16.71 bitrate= 134.1kbits/s    
  72. size=     282kB time=00:00:17.21 bitrate= 134.1kbits/s
clone this paste RAW Paste Data