This week only. Pastebin PRO Accounts Christmas Special! Don't miss out!Want more features on Pastebin? Sign Up, it's FREE!
Guest

debug

By: a guest on Feb 20th, 2014  |  syntax: None  |  size: 72.31 KB  |  views: 44  |  expires: Never
download  |  raw  |  embed  |  report abuse  |  print
Text below is selected. Please press Ctrl+C to copy to your clipboard. (⌘+C on Mac)
  1. INFO  2014-02-20 18:47:52.780 [main] Starting PS3 Media Server 1.90.1
  2. INFO  2014-02-20 18:47:52.780 [main] by shagrath / 2008-2013
  3. INFO  2014-02-20 18:47:52.781 [main] http://ps3mediaserver.org
  4. INFO  2014-02-20 18:47:52.781 [main] https://github.com/ps3mediaserver/ps3mediaserver
  5. INFO  2014-02-20 18:47:52.781 [main]
  6. INFO  2014-02-20 18:47:52.781 [main] Build: 3a4304c72 (2013-08-17)
  7. INFO  2014-02-20 18:47:52.781 [main] Java: Java HotSpot(TM) 64-Bit Server VM 1.7.0_25 by Oracle Corporation
  8. INFO  2014-02-20 18:47:52.781 [main] OS: Windows 7 amd64 6.1
  9. INFO  2014-02-20 18:47:52.781 [main] Encoding: UTF-8
  10. INFO  2014-02-20 18:47:52.792 [main] Memory: 682 MB
  11. INFO  2014-02-20 18:47:52.792 [main]
  12. INFO  2014-02-20 18:47:52.792 [main] Working directory: C:\Program Files (x86)\PS3 Media Server
  13. INFO  2014-02-20 18:47:52.797 [main] Temp directory: C:\Users\Arnie\AppData\Local\Temp\ps3mediaserver
  14. INFO  2014-02-20 18:47:52.798 [main] Logging config file: C:\Program Files (x86)\PS3 Media Server\logback.xml
  15. INFO  2014-02-20 18:47:52.798 [main] debug.log: C:\ProgramData\PMS\debug.log
  16. INFO  2014-02-20 18:47:52.798 [main]
  17. INFO  2014-02-20 18:47:52.798 [main] Profile directory: C:\ProgramData\PMS
  18. INFO  2014-02-20 18:47:52.799 [main] Profile directory permissions: rw
  19. INFO  2014-02-20 18:47:52.799 [main] Profile path: C:\ProgramData\PMS\PMS.conf
  20. INFO  2014-02-20 18:47:52.800 [main] Profile permissions: file not found
  21. INFO  2014-02-20 18:47:52.800 [main] Profile name: CarryOn
  22. INFO  2014-02-20 18:47:52.800 [main]
  23. INFO  2014-02-20 18:47:52.800 [main] Web conf path: C:\ProgramData\PMS\WEB.conf
  24. INFO  2014-02-20 18:47:52.800 [main] Web conf permissions: file not found
  25. INFO  2014-02-20 18:47:52.800 [main]
  26. INFO  2014-02-20 18:47:53.739 [main] Loading MediaInfo library
  27. INFO  2014-02-20 18:47:53.849 [main] Loaded MediaInfoLib - v0.7.62
  28. INFO  2014-02-20 18:47:53.855 [main] Loading renderer configurations from C:\Program Files (x86)\PS3 Media Server\renderers
  29. INFO  2014-02-20 18:47:53.856 [main] Loading configuration file: AirPlayer.conf
  30. INFO  2014-02-20 18:47:53.863 [main] Loading configuration file: Android.conf
  31. INFO  2014-02-20 18:47:53.865 [main] Loading configuration file: BlackBerryPlayBook-KalemSoftMP.conf
  32. INFO  2014-02-20 18:47:53.871 [main] Loading configuration file: Bravia4500.conf
  33. INFO  2014-02-20 18:47:53.875 [main] Loading configuration file: Bravia5500.conf
  34. INFO  2014-02-20 18:47:53.879 [main] Loading configuration file: BraviaEX.conf
  35. INFO  2014-02-20 18:47:53.886 [main] Loading configuration file: BraviaEX620.conf
  36. INFO  2014-02-20 18:47:53.891 [main] Loading configuration file: BraviaHX.conf
  37. INFO  2014-02-20 18:47:53.896 [main] Loading configuration file: BraviaW.conf
  38. INFO  2014-02-20 18:47:53.901 [main] Loading configuration file: DirecTVHR.conf
  39. INFO  2014-02-20 18:47:53.905 [main] Loading configuration file: DLinkDSM510.conf
  40. INFO  2014-02-20 18:47:53.907 [main] Loading configuration file: FreeboxHD.conf
  41. INFO  2014-02-20 18:47:53.909 [main] Loading configuration file: FreecomMusicPal.conf
  42. INFO  2014-02-20 18:47:53.912 [main] Loading configuration file: iPad-iPhone.conf
  43. INFO  2014-02-20 18:47:53.915 [main] Loading configuration file: Kuro.conf
  44. INFO  2014-02-20 18:47:53.918 [main] Loading configuration file: LGST600.conf
  45. INFO  2014-02-20 18:47:53.923 [main] Loading configuration file: N900.conf
  46. INFO  2014-02-20 18:47:53.925 [main] Loading configuration file: NetgearNeoTV.conf
  47. INFO  2014-02-20 18:47:53.928 [main] Loading configuration file: OnkyoTX-NR717.conf
  48. INFO  2014-02-20 18:47:53.930 [main] Loading configuration file: OPPOBDP83.conf
  49. INFO  2014-02-20 18:47:53.932 [main] Loading configuration file: OPPOBDP93.conf
  50. INFO  2014-02-20 18:47:53.934 [main] Loading configuration file: Panasonic.conf
  51. INFO  2014-02-20 18:47:53.938 [main] Loading configuration file: Philips.conf
  52. INFO  2014-02-20 18:47:53.940 [main] Loading configuration file: PhilipsPFL.conf
  53. INFO  2014-02-20 18:47:53.943 [main] Loading configuration file: PopcornHour.conf
  54. INFO  2014-02-20 18:47:53.944 [main] Loading configuration file: PS3.conf
  55. INFO  2014-02-20 18:47:53.949 [main] Loading configuration file: Realtek.conf
  56. INFO  2014-02-20 18:47:53.950 [main] Loading configuration file: Samsung-SMT-G7400.conf
  57. INFO  2014-02-20 18:47:53.952 [main] Loading configuration file: SamsungAllShare.conf
  58. INFO  2014-02-20 18:47:53.954 [main] Loading configuration file: SamsungWiseLink.conf
  59. INFO  2014-02-20 18:47:53.955 [main] Loading configuration file: SharpAquos.conf
  60. INFO  2014-02-20 18:47:53.957 [main] Loading configuration file: Showtime3.conf
  61. INFO  2014-02-20 18:47:53.959 [main] Loading configuration file: Showtime4.conf
  62. INFO  2014-02-20 18:47:53.962 [main] Loading configuration file: SMP-N100.conf
  63. INFO  2014-02-20 18:47:53.964 [main] Loading configuration file: SonyBluray.conf
  64. INFO  2014-02-20 18:47:53.966 [main] Loading configuration file: SonyHomeTheatreSystem.conf
  65. INFO  2014-02-20 18:47:53.969 [main] Loading configuration file: Streamium.conf
  66. INFO  2014-02-20 18:47:53.971 [main] Loading configuration file: TelstraTbox.conf
  67. INFO  2014-02-20 18:47:53.973 [main] Loading configuration file: VideoWebTV.conf
  68. INFO  2014-02-20 18:47:53.975 [main] Loading configuration file: VizioSmartTV.conf
  69. INFO  2014-02-20 18:47:53.978 [main] Loading configuration file: WDTVLive.conf
  70. INFO  2014-02-20 18:47:53.981 [main] Loading configuration file: WMP.conf
  71. INFO  2014-02-20 18:47:53.983 [main] Loading configuration file: XBMC.conf
  72. INFO  2014-02-20 18:47:53.984 [main] Loading configuration file: XBOX360.conf
  73. INFO  2014-02-20 18:47:53.986 [main] Loading configuration file: YamahaRXA1010.conf
  74. INFO  2014-02-20 18:47:53.987 [main] Loading configuration file: YamahaRXV3900.conf
  75. INFO  2014-02-20 18:47:53.988 [main] Loading configuration file: YamahaRXV671.conf
  76. INFO  2014-02-20 18:47:53.990 [main] Checking MPlayer font cache. It can take a minute or so.
  77. DEBUG 2014-02-20 18:47:53.990 [main] launching: win32/mplayer.exe
  78. DEBUG 2014-02-20 18:47:54.440 [main] launching: win32/mplayer.exe
  79. INFO  2014-02-20 18:47:54.528 [main] Done!
  80. INFO  2014-02-20 18:47:54.529 [main] Found VLC version 2.0.5 at: C:\Program Files (x86)\VideoLAN\VLC\vlc.exe
  81. INFO  2014-02-20 18:47:54.531 [main] Searching for plugins in C:\Program Files (x86)\PS3 Media Server\plugins
  82. INFO  2014-02-20 18:47:54.532 [main] No plugins found
  83. INFO  2014-02-20 18:47:54.541 [main] Transcoder profile AviSynth/FFmpeg will not be used because AviSynth was not found
  84. INFO  2014-02-20 18:47:54.541 [main] Registering transcoding engine: FFmpeg Audio
  85. INFO  2014-02-20 18:47:54.544 [main] Registering transcoding engine: MEncoder Video
  86. INFO  2014-02-20 18:47:54.545 [main] Transcoder profile AviSynth/MEncoder will not be used because AviSynth was not found
  87. INFO  2014-02-20 18:47:54.546 [main] Registering transcoding engine: FFmpeg
  88. DEBUG 2014-02-20 18:47:54.547 [main] Found VLC version 2.0.5 in Windows Registry: C:\Program Files (x86)\VideoLAN\VLC\vlc.exe
  89. DEBUG 2014-02-20 18:47:54.547 [main] Found VLC version 2.0.5 in Windows Registry: C:\Program Files (x86)\VideoLAN\VLC\vlc.exe
  90. DEBUG 2014-02-20 18:47:54.547 [main] Found VLC version 2.0.5 in Windows Registry: C:\Program Files (x86)\VideoLAN\VLC\vlc.exe
  91. INFO  2014-02-20 18:47:54.548 [main] Registering transcoding engine: VLC Video
  92. DEBUG 2014-02-20 18:47:55.026 [main] FFmpeg supported protocols: [bluray, cache, concat, crypto, data, file, ftp, gopher, hls, http, httpproxy, https, mmsh, mmst, pipe, rtp, srtp, tcp, tls, udp, rtmp, rtmpe, rtmps, rtmpt, rtmpte, mms]
  93. INFO  2014-02-20 18:47:55.027 [main] Registering transcoding engine: FFmpeg Web Video
  94. INFO  2014-02-20 18:47:55.028 [main] Registering transcoding engine: FFmpeg Web Audio
  95. INFO  2014-02-20 18:47:55.028 [main] Registering transcoding engine: MEncoder Web Video
  96. DEBUG 2014-02-20 18:47:55.029 [main] Found VLC version 2.0.5 in Windows Registry: C:\Program Files (x86)\VideoLAN\VLC\vlc.exe
  97. DEBUG 2014-02-20 18:47:55.029 [main] Found VLC version 2.0.5 in Windows Registry: C:\Program Files (x86)\VideoLAN\VLC\vlc.exe
  98. DEBUG 2014-02-20 18:47:55.029 [main] Found VLC version 2.0.5 in Windows Registry: C:\Program Files (x86)\VideoLAN\VLC\vlc.exe
  99. INFO  2014-02-20 18:47:55.029 [main] Registering transcoding engine: VLC Web Video
  100. INFO  2014-02-20 18:47:55.030 [main] Registering transcoding engine: tsMuxeR
  101. INFO  2014-02-20 18:47:55.030 [main] Registering transcoding engine: Audio High Fidelity
  102. DEBUG 2014-02-20 18:47:55.031 [main] Found VLC version 2.0.5 in Windows Registry: C:\Program Files (x86)\VideoLAN\VLC\vlc.exe
  103. DEBUG 2014-02-20 18:47:55.031 [main] Found VLC version 2.0.5 in Windows Registry: C:\Program Files (x86)\VideoLAN\VLC\vlc.exe
  104. DEBUG 2014-02-20 18:47:55.031 [main] Found VLC version 2.0.5 in Windows Registry: C:\Program Files (x86)\VideoLAN\VLC\vlc.exe
  105. INFO  2014-02-20 18:47:55.031 [main] Registering transcoding engine: VLC Web Audio (Legacy)
  106. DEBUG 2014-02-20 18:47:55.031 [main] Found VLC version 2.0.5 in Windows Registry: C:\Program Files (x86)\VideoLAN\VLC\vlc.exe
  107. DEBUG 2014-02-20 18:47:55.031 [main] Found VLC version 2.0.5 in Windows Registry: C:\Program Files (x86)\VideoLAN\VLC\vlc.exe
  108. DEBUG 2014-02-20 18:47:55.031 [main] Found VLC version 2.0.5 in Windows Registry: C:\Program Files (x86)\VideoLAN\VLC\vlc.exe
  109. INFO  2014-02-20 18:47:55.031 [main] Registering transcoding engine: VLC Web Video (Legacy)
  110. INFO  2014-02-20 18:47:55.032 [main] Registering transcoding engine: FFmpeg DVR-MS Remux
  111. INFO  2014-02-20 18:47:55.032 [main] Registering transcoding engine: dcraw Thumbnailer
  112. DEBUG 2014-02-20 18:47:55.099 [main] Reading alternativeffmpegpath: default: null, current: "C:\Program Files (x86)\PS3 Media Server\win32\dvrms\ffmpeg_MPGMUX.exe"
  113. INFO  2014-02-20 18:47:55.124 [main] Using address /10.0.0.8 found on network interface: name:net7 (Atheros AR9287 Wireless Network Adapter)
  114. INFO  2014-02-20 18:47:55.125 [main] Created socket: /10.0.0.8:5001
  115. DEBUG 2014-02-20 18:47:55.218 [main] Sending ALIVE...
  116. INFO  2014-02-20 18:47:55.352 [main] Generated new random UUID: 2f95bbc9-1896-44c6-b341-5d6d0b2f9e7f
  117. INFO  2014-02-20 18:47:55.357 [main] Configuration saved to: C:\ProgramData\PMS\PMS.conf
  118. INFO  2014-02-20 18:47:55.358 [main] Using the following UUID configured in PMS.conf: 2f95bbc9-1896-44c6-b341-5d6d0b2f9e7f
  119. INFO  2014-02-20 18:47:55.610 [main] The server should now appear on your renderer
  120. INFO  2014-02-20 18:47:57.677 [New I/O server worker #1-1] No IP filter specified, access granted to /10.0.0.4
  121. INFO  2014-02-20 18:47:57.686 [pool-7-thread-1] Checking IP: 10.0.0.4 for PlayStation 3
  122. DEBUG 2014-02-20 18:47:57.704 [New I/O server worker #1-1] HTTP User-Agent: UPnP/1.0
  123. DEBUG 2014-02-20 18:48:05.609 [UPNP-AliveMessageSender] Sending ALIVE...
  124. INFO  2014-02-20 18:48:13.433 [UPNPHelper] No IP filter specified, access granted to /10.0.0.8
  125. INFO  2014-02-20 18:48:14.590 [pool-7-thread-1] Renderer PlayStation 3 found on this address: 10.0.0.4
  126. DEBUG 2014-02-20 18:48:14.598 [pool-7-thread-1] Starting ping -n 3 -l 64000 10.0.0.4
  127. DEBUG 2014-02-20 18:48:14.650 [Thread-12]
  128. DEBUG 2014-02-20 18:48:14.650 [Thread-12] Pinging 10.0.0.4 with 64000 bytes of data:
  129. DEBUG 2014-02-20 18:48:16.601 [SpeedStats Failsafe] Stopping process: ping-0
  130. INFO  2014-02-20 18:48:25.058 [New I/O server worker #1-5] No IP filter specified, access granted to /10.0.0.3
  131. INFO  2014-02-20 18:48:25.069 [pool-7-thread-1] Checking IP: 10.0.0.3 for WMP
  132. DEBUG 2014-02-20 18:48:25.092 [New I/O server worker #1-5] HTTP User-Agent: Microsoft-Windows/6.1 UPnP/1.0 Windows-Media-Player-DMS/12.0.7601.17514 DLNADOC/1.50
  133. DEBUG 2014-02-20 18:48:25.744 [UPNP-AliveMessageSender] Sending ALIVE...
  134. DEBUG 2014-02-20 18:48:32.373 [New I/O server worker #1-8] Forcing short path name on C:\Users\Arnie\Desktop\ĀµTorrent.lnk
  135. DEBUG 2014-02-20 18:48:35.275 [New I/O server worker #1-3] Starting "C:\Program Files (x86)\PS3 Media Server\win32\ffmpeg.exe" -ss 2 -i C:\Users\Arnie\Desktop\Burning\black.sails.s01e02.hdtv.x264-killers.mp4 -an -an -s 320x180 -vframes 1 -f image2 pipe:
  136. INFO  2014-02-20 18:48:35.283 [New I/O server worker #1-3] Successfully initialized buffer to 1,048,576 bytes.
  137. DEBUG 2014-02-20 18:48:35.284 [New I/O server worker #1-3] Attaching thread: ffmpeg.exe-1
  138. DEBUG 2014-02-20 18:48:35.319 [Thread-14] ffmpeg version N-55607-g2c1a215 Copyright (c) 2000-2013 the FFmpeg developers
  139. DEBUG 2014-02-20 18:48:35.319 [Thread-14]   built on Aug 16 2013 20:10:34 with gcc 4.7.3 (GCC)
  140. DEBUG 2014-02-20 18:48:35.319 [Thread-14]   configuration: --enable-gpl --enable-version3 --disable-w32threads --enable-avisynth --enable-bzlib --enable-fontconfig --enable-frei0r --enable-gnutls --enable-iconv --enable-libass --enable-libbluray --enable-libcaca --enable-libfreetype --enable-libgsm --enable-libilbc --enable-libmodplug --enable-libmp3lame --enable-libopencore-amrnb --enable-libopencore-amrwb --enable-libopenjpeg --enable-libopus --enable-librtmp --enable-libschroedinger --enable-libsoxr --enable-libspeex --enable-libtheora --enable-libtwolame --enable-libvo-aacenc --enable-libvo-amrwbenc --enable-libvorbis --enable-libvpx --enable-libx264 --enable-libxavs --enable-libxvid --enable-zlib
  141. DEBUG 2014-02-20 18:48:35.319 [Thread-14]   libavutil      52. 42.100 / 52. 42.100
  142. DEBUG 2014-02-20 18:48:35.319 [Thread-14]   libavcodec     55. 28.100 / 55. 28.100
  143. DEBUG 2014-02-20 18:48:35.319 [Thread-14]   libavformat    55. 13.103 / 55. 13.103
  144. DEBUG 2014-02-20 18:48:35.319 [Thread-14]   libavdevice    55.  3.100 / 55.  3.100
  145. DEBUG 2014-02-20 18:48:35.319 [Thread-14]   libavfilter     3. 82.100 /  3. 82.100
  146. DEBUG 2014-02-20 18:48:35.319 [Thread-14]   libswscale      2.  5.100 /  2.  5.100
  147. DEBUG 2014-02-20 18:48:35.319 [Thread-14]   libswresample   0. 17.103 /  0. 17.103
  148. DEBUG 2014-02-20 18:48:35.319 [Thread-14]   libpostproc    52.  3.100 / 52.  3.100
  149. DEBUG 2014-02-20 18:48:35.359 [Thread-14] Input #0, mov,mp4,m4a,3gp,3g2,mj2, from 'C:\Users\Arnie\Desktop\Burning\black.sails.s01e02.hdtv.x264-killers.mp4':
  150. DEBUG 2014-02-20 18:48:35.359 [Thread-14]   Metadata:
  151. DEBUG 2014-02-20 18:48:35.359 [Thread-14]     major_brand     : isom
  152. DEBUG 2014-02-20 18:48:35.359 [Thread-14]     minor_version   : 1
  153. DEBUG 2014-02-20 18:48:35.359 [Thread-14]     compatible_brands: isom
  154. DEBUG 2014-02-20 18:48:35.360 [Thread-14]     creation_time   : 2014-02-02 03:01:01
  155. DEBUG 2014-02-20 18:48:35.360 [Thread-14]   Duration: 00:51:55.88, start: 0.000000, bitrate: 1129 kb/s
  156. DEBUG 2014-02-20 18:48:35.360 [Thread-14]     Stream #0:0(und): Audio: aac (mp4a / 0x6134706D), 48000 Hz, stereo, fltp, 122 kb/s
  157. DEBUG 2014-02-20 18:48:35.360 [Thread-14]     Metadata:
  158. DEBUG 2014-02-20 18:48:35.360 [Thread-14]       creation_time   : 2014-02-02 03:01:01
  159. DEBUG 2014-02-20 18:48:35.360 [Thread-14]       handler_name    : GPAC ISO Audio Handler
  160. DEBUG 2014-02-20 18:48:35.361 [Thread-14]     Stream #0:1(und): Video: h264 (High) (avc1 / 0x31637661), yuv420p, 720x404, 1003 kb/s, 23.98 fps, 23.98 tbr, 24k tbn, 47.95 tbc
  161. DEBUG 2014-02-20 18:48:35.361 [Thread-14]     Metadata:
  162. DEBUG 2014-02-20 18:48:35.361 [Thread-14]       creation_time   : 2014-02-02 11:18:18
  163. DEBUG 2014-02-20 18:48:35.361 [Thread-14]       handler_name    : L-SMASH Video Media Handler
  164. DEBUG 2014-02-20 18:48:35.364 [Thread-14] [swscaler @ 03d6b800] deprecated pixel format used, make sure you did set range correctly
  165. DEBUG 2014-02-20 18:48:35.367 [Thread-14] Output #0, image2, to 'pipe:':
  166. DEBUG 2014-02-20 18:48:35.367 [Thread-14]   Metadata:
  167. DEBUG 2014-02-20 18:48:35.367 [Thread-14]     major_brand     : isom
  168. DEBUG 2014-02-20 18:48:35.367 [Thread-14]     minor_version   : 1
  169. DEBUG 2014-02-20 18:48:35.367 [Thread-14]     compatible_brands: isom
  170. DEBUG 2014-02-20 18:48:35.368 [Thread-14]     encoder         : Lavf55.13.103
  171. DEBUG 2014-02-20 18:48:35.368 [Thread-14]     Stream #0:0(und): Video: mjpeg, yuvj420p, 320x180, q=2-31, 200 kb/s, 90k tbn, 23.98 tbc
  172. DEBUG 2014-02-20 18:48:35.368 [Thread-14]     Metadata:
  173. DEBUG 2014-02-20 18:48:35.368 [Thread-14]       creation_time   : 2014-02-02 11:18:18
  174. DEBUG 2014-02-20 18:48:35.368 [Thread-14]       handler_name    : L-SMASH Video Media Handler
  175. DEBUG 2014-02-20 18:48:35.368 [Thread-14] Stream mapping:
  176. DEBUG 2014-02-20 18:48:35.368 [Thread-14]   Stream #0:1 -> #0:0 (h264 -> mjpeg)
  177. DEBUG 2014-02-20 18:48:35.368 [Thread-14] Press [q] to stop, [?] for help
  178. DEBUG 2014-02-20 18:48:35.399 [Thread-14] frame=    1 fps=0.0 q=0.0 Lsize=N/A time=00:00:00.04 bitrate=N/A    
  179. DEBUG 2014-02-20 18:48:35.399 [Thread-14]
  180. DEBUG 2014-02-20 18:48:35.399 [Thread-14] video:3kB audio:0kB subtitle:0 global headers:0kB muxing overhead -100.809121%
  181. DEBUG 2014-02-20 18:48:35.495 [New I/O server worker #1-7] Starting "C:\Program Files (x86)\PS3 Media Server\win32\ffmpeg.exe" -ss 2 -i C:\Users\Arnie\Desktop\Burning\black.sails.s01e03.hdtv.x264-2hd.mp4 -an -an -s 320x180 -vframes 1 -f image2 pipe:
  182. INFO  2014-02-20 18:48:35.498 [New I/O server worker #1-7] Successfully initialized buffer to 1,048,576 bytes.
  183. DEBUG 2014-02-20 18:48:35.498 [New I/O server worker #1-7] Attaching thread: ffmpeg.exe-2
  184. DEBUG 2014-02-20 18:48:35.531 [Thread-18] ffmpeg version N-55607-g2c1a215 Copyright (c) 2000-2013 the FFmpeg developers
  185. DEBUG 2014-02-20 18:48:35.531 [Thread-18]   built on Aug 16 2013 20:10:34 with gcc 4.7.3 (GCC)
  186. DEBUG 2014-02-20 18:48:35.531 [Thread-18]   configuration: --enable-gpl --enable-version3 --disable-w32threads --enable-avisynth --enable-bzlib --enable-fontconfig --enable-frei0r --enable-gnutls --enable-iconv --enable-libass --enable-libbluray --enable-libcaca --enable-libfreetype --enable-libgsm --enable-libilbc --enable-libmodplug --enable-libmp3lame --enable-libopencore-amrnb --enable-libopencore-amrwb --enable-libopenjpeg --enable-libopus --enable-librtmp --enable-libschroedinger --enable-libsoxr --enable-libspeex --enable-libtheora --enable-libtwolame --enable-libvo-aacenc --enable-libvo-amrwbenc --enable-libvorbis --enable-libvpx --enable-libx264 --enable-libxavs --enable-libxvid --enable-zlib
  187. DEBUG 2014-02-20 18:48:35.531 [Thread-18]   libavutil      52. 42.100 / 52. 42.100
  188. DEBUG 2014-02-20 18:48:35.531 [Thread-18]   libavcodec     55. 28.100 / 55. 28.100
  189. DEBUG 2014-02-20 18:48:35.531 [Thread-18]   libavformat    55. 13.103 / 55. 13.103
  190. DEBUG 2014-02-20 18:48:35.531 [Thread-18]   libavdevice    55.  3.100 / 55.  3.100
  191. DEBUG 2014-02-20 18:48:35.531 [Thread-18]   libavfilter     3. 82.100 /  3. 82.100
  192. DEBUG 2014-02-20 18:48:35.531 [Thread-18]   libswscale      2.  5.100 /  2.  5.100
  193. DEBUG 2014-02-20 18:48:35.531 [Thread-18]   libswresample   0. 17.103 /  0. 17.103
  194. DEBUG 2014-02-20 18:48:35.531 [Thread-18]   libpostproc    52.  3.100 / 52.  3.100
  195. DEBUG 2014-02-20 18:48:35.547 [Thread-18] Input #0, mov,mp4,m4a,3gp,3g2,mj2, from 'C:\Users\Arnie\Desktop\Burning\black.sails.s01e03.hdtv.x264-2hd.mp4':
  196. DEBUG 2014-02-20 18:48:35.547 [Thread-18]   Metadata:
  197. DEBUG 2014-02-20 18:48:35.547 [Thread-18]     major_brand     : isom
  198. DEBUG 2014-02-20 18:48:35.547 [Thread-18]     minor_version   : 1
  199. DEBUG 2014-02-20 18:48:35.547 [Thread-18]     compatible_brands: isom
  200. DEBUG 2014-02-20 18:48:35.547 [Thread-18]     creation_time   : 2014-02-09 03:03:52
  201. DEBUG 2014-02-20 18:48:35.548 [Thread-18]   Duration: 00:57:41.82, start: 0.000000, bitrate: 1274 kb/s
  202. DEBUG 2014-02-20 18:48:35.548 [Thread-18]     Stream #0:0(und): Video: h264 (High) (avc1 / 0x31637661), yuv420p, 720x404, 1144 kb/s, 23.98 fps, 23.98 tbr, 24k tbn, 47.95 tbc
  203. DEBUG 2014-02-20 18:48:35.548 [Thread-18]     Metadata:
  204. DEBUG 2014-02-20 18:48:35.548 [Thread-18]       creation_time   : 2014-02-09 02:49:26
  205. DEBUG 2014-02-20 18:48:35.548 [Thread-18]     Stream #0:1(und): Audio: aac (mp4a / 0x6134706D), 48000 Hz, stereo, fltp, 125 kb/s
  206. DEBUG 2014-02-20 18:48:35.548 [Thread-18]     Metadata:
  207. DEBUG 2014-02-20 18:48:35.548 [Thread-18]       creation_time   : 2014-02-09 03:03:52
  208. DEBUG 2014-02-20 18:48:35.549 [Thread-18]     Stream #0:2(und): Data: none (mp4s / 0x7334706D), 0 kb/s
  209. DEBUG 2014-02-20 18:48:35.549 [Thread-18]     Metadata:
  210. DEBUG 2014-02-20 18:48:35.549 [Thread-18]       creation_time   : 2014-02-09 03:03:52
  211. DEBUG 2014-02-20 18:48:35.549 [Thread-18]     Stream #0:3(und): Data: none (mp4s / 0x7334706D), 0 kb/s
  212. DEBUG 2014-02-20 18:48:35.549 [Thread-18]     Metadata:
  213. DEBUG 2014-02-20 18:48:35.549 [Thread-18]       creation_time   : 2014-02-09 03:03:52
  214. DEBUG 2014-02-20 18:48:35.552 [Thread-18] [swscaler @ 0548b020] deprecated pixel format used, make sure you did set range correctly
  215. DEBUG 2014-02-20 18:48:35.555 [Thread-18] Output #0, image2, to 'pipe:':
  216. DEBUG 2014-02-20 18:48:35.555 [Thread-18]   Metadata:
  217. DEBUG 2014-02-20 18:48:35.555 [Thread-18]     major_brand     : isom
  218. DEBUG 2014-02-20 18:48:35.555 [Thread-18]     minor_version   : 1
  219. DEBUG 2014-02-20 18:48:35.555 [Thread-18]     compatible_brands: isom
  220. DEBUG 2014-02-20 18:48:35.555 [Thread-18]     encoder         : Lavf55.13.103
  221. DEBUG 2014-02-20 18:48:35.555 [Thread-18]     Stream #0:0(und): Video: mjpeg, yuvj420p, 320x180, q=2-31, 200 kb/s, 90k tbn, 23.98 tbc
  222. DEBUG 2014-02-20 18:48:35.556 [Thread-18]     Metadata:
  223. DEBUG 2014-02-20 18:48:35.556 [Thread-18]       creation_time   : 2014-02-09 02:49:26
  224. DEBUG 2014-02-20 18:48:35.556 [Thread-18] Stream mapping:
  225. DEBUG 2014-02-20 18:48:35.556 [Thread-18]   Stream #0:0 -> #0:0 (h264 -> mjpeg)
  226. DEBUG 2014-02-20 18:48:35.556 [Thread-18] Press [q] to stop, [?] for help
  227. DEBUG 2014-02-20 18:48:35.578 [Thread-18] frame=    1 fps=0.0 q=0.0 Lsize=N/A time=00:00:00.04 bitrate=N/A    
  228. DEBUG 2014-02-20 18:48:35.579 [Thread-18]
  229. DEBUG 2014-02-20 18:48:35.579 [Thread-18] video:3kB audio:0kB subtitle:0 global headers:0kB muxing overhead -100.797101%
  230. DEBUG 2014-02-20 18:48:35.710 [New I/O server worker #1-1] Starting "C:\Program Files (x86)\PS3 Media Server\win32\ffmpeg.exe" -ss 2 -i C:\Users\Arnie\Desktop\Burning\cocain-thefamily.mpg -an -an -s 320x180 -vframes 1 -f image2 pipe:
  231. INFO  2014-02-20 18:48:35.714 [New I/O server worker #1-1] Successfully initialized buffer to 1,048,576 bytes.
  232. DEBUG 2014-02-20 18:48:35.715 [New I/O server worker #1-1] Attaching thread: ffmpeg.exe-3
  233. DEBUG 2014-02-20 18:48:35.757 [Thread-22] ffmpeg version N-55607-g2c1a215 Copyright (c) 2000-2013 the FFmpeg developers
  234. DEBUG 2014-02-20 18:48:35.757 [Thread-22]   built on Aug 16 2013 20:10:34 with gcc 4.7.3 (GCC)
  235. DEBUG 2014-02-20 18:48:35.757 [Thread-22]   configuration: --enable-gpl --enable-version3 --disable-w32threads --enable-avisynth --enable-bzlib --enable-fontconfig --enable-frei0r --enable-gnutls --enable-iconv --enable-libass --enable-libbluray --enable-libcaca --enable-libfreetype --enable-libgsm --enable-libilbc --enable-libmodplug --enable-libmp3lame --enable-libopencore-amrnb --enable-libopencore-amrwb --enable-libopenjpeg --enable-libopus --enable-librtmp --enable-libschroedinger --enable-libsoxr --enable-libspeex --enable-libtheora --enable-libtwolame --enable-libvo-aacenc --enable-libvo-amrwbenc --enable-libvorbis --enable-libvpx --enable-libx264 --enable-libxavs --enable-libxvid --enable-zlib
  236. DEBUG 2014-02-20 18:48:35.758 [Thread-22]   libavutil      52. 42.100 / 52. 42.100
  237. DEBUG 2014-02-20 18:48:35.758 [Thread-22]   libavcodec     55. 28.100 / 55. 28.100
  238. DEBUG 2014-02-20 18:48:35.758 [Thread-22]   libavformat    55. 13.103 / 55. 13.103
  239. DEBUG 2014-02-20 18:48:35.758 [Thread-22]   libavdevice    55.  3.100 / 55.  3.100
  240. DEBUG 2014-02-20 18:48:35.758 [Thread-22]   libavfilter     3. 82.100 /  3. 82.100
  241. DEBUG 2014-02-20 18:48:35.758 [Thread-22]   libswscale      2.  5.100 /  2.  5.100
  242. DEBUG 2014-02-20 18:48:35.758 [Thread-22]   libswresample   0. 17.103 /  0. 17.103
  243. DEBUG 2014-02-20 18:48:35.758 [Thread-22]   libpostproc    52.  3.100 / 52.  3.100
  244. DEBUG 2014-02-20 18:48:35.769 [Thread-22] Input #0, mpegts, from 'C:\Users\Arnie\Desktop\Burning\cocain-thefamily.mpg':
  245. DEBUG 2014-02-20 18:48:35.769 [Thread-22]   Duration: 01:51:34.69, start: 599.958300, bitrate: 1318 kb/s
  246. DEBUG 2014-02-20 18:48:35.769 [Thread-22]   Program 1
  247. DEBUG 2014-02-20 18:48:35.770 [Thread-22]     Stream #0:0[0x1011]: Video: h264 (High) ([27][0][0][0] / 0x001B), yuv420p, 720x304, 23.98 fps, 23.98 tbr, 90k tbn, 47.95 tbc
  248. DEBUG 2014-02-20 18:48:35.770 [Thread-22]     Stream #0:1[0x1100]: Audio: ac3 (AC-3 / 0x332D4341), 48000 Hz, stereo, fltp, 384 kb/s
  249. DEBUG 2014-02-20 18:48:35.773 [Thread-22] [swscaler @ 04584c00] deprecated pixel format used, make sure you did set range correctly
  250. DEBUG 2014-02-20 18:48:35.776 [Thread-22] Output #0, image2, to 'pipe:':
  251. DEBUG 2014-02-20 18:48:35.776 [Thread-22]   Metadata:
  252. DEBUG 2014-02-20 18:48:35.776 [Thread-22]     encoder         : Lavf55.13.103
  253. DEBUG 2014-02-20 18:48:35.776 [Thread-22]     Stream #0:0: Video: mjpeg, yuvj420p, 320x180, q=2-31, 200 kb/s, 90k tbn, 23.98 tbc
  254. DEBUG 2014-02-20 18:48:35.776 [Thread-22] Stream mapping:
  255. DEBUG 2014-02-20 18:48:35.776 [Thread-22]   Stream #0:0 -> #0:0 (h264 -> mjpeg)
  256. DEBUG 2014-02-20 18:48:35.776 [Thread-22] Press [q] to stop, [?] for help
  257. DEBUG 2014-02-20 18:48:35.777 [Thread-22] [h264 @ 04f4b1c0] reference picture missing during reorder
  258. DEBUG 2014-02-20 18:48:35.777 [Thread-22]     Last message repeated 5 times
  259. DEBUG 2014-02-20 18:48:35.777 [Thread-22] [h264 @ 04f4b1c0] Missing reference picture, default is 0
  260. DEBUG 2014-02-20 18:48:35.777 [Thread-22] [h264 @ 04f4b1c0] decode_slice_header error
  261. DEBUG 2014-02-20 18:48:35.777 [Thread-22] [h264 @ 04f4b5a0] Missing reference picture, default is 65506
  262. DEBUG 2014-02-20 18:48:35.778 [Thread-22]     Last message repeated 1 times
  263. DEBUG 2014-02-20 18:48:35.778 [Thread-22] [h264 @ 04f4b980] reference picture missing during reorder
  264. DEBUG 2014-02-20 18:48:35.778 [Thread-22]     Last message repeated 2 times
  265. DEBUG 2014-02-20 18:48:35.778 [Thread-22] [h264 @ 04f4b980] Missing reference picture, default is 65506
  266. DEBUG 2014-02-20 18:48:35.779 [Thread-22]     Last message repeated 2 times
  267. DEBUG 2014-02-20 18:48:35.779 [Thread-22] [h264 @ 04f4bd80] mmco: unref short failure
  268. DEBUG 2014-02-20 18:48:35.779 [Thread-22] [h264 @ 04f4bd80] Missing reference picture, default is 65506
  269. DEBUG 2014-02-20 18:48:35.780 [Thread-22] [h264 @ 04f4c160] reference picture missing during reorder
  270. DEBUG 2014-02-20 18:48:35.780 [Thread-22]     Last message repeated 1 times
  271. DEBUG 2014-02-20 18:48:35.780 [Thread-22] [h264 @ 04f4c160] Missing reference picture, default is 65510
  272. DEBUG 2014-02-20 18:48:35.781 [Thread-22]     Last message repeated 1 times
  273. DEBUG 2014-02-20 18:48:35.781 [Thread-22] [h264 @ 04f4b1c0] mmco: unref short failure
  274. DEBUG 2014-02-20 18:48:35.782 [Thread-22] [h264 @ 04f4b5a0] reference picture missing during reorder
  275. DEBUG 2014-02-20 18:48:35.782 [Thread-22] [h264 @ 04f4b5a0] Missing reference picture, default is 65514
  276. DEBUG 2014-02-20 18:48:35.782 [Thread-22] [h264 @ 04f4b980] reference picture missing during reorder
  277. DEBUG 2014-02-20 18:48:35.782 [Thread-22] [h264 @ 04f4b980] Missing reference picture, default is 65516
  278. DEBUG 2014-02-20 18:48:35.794 [Thread-22] frame=    1 fps=0.0 q=0.0 Lsize=N/A time=00:00:00.04 bitrate=N/A    
  279. DEBUG 2014-02-20 18:48:35.795 [Thread-22]
  280. DEBUG 2014-02-20 18:48:35.795 [Thread-22] video:5kB audio:0kB subtitle:0 global headers:0kB muxing overhead -100.422914%
  281. DEBUG 2014-02-20 18:48:35.992 [New I/O server worker #1-3] Starting "C:\Program Files (x86)\PS3 Media Server\win32\ffmpeg.exe" -ss 2 -i C:\Users\Arnie\Desktop\Burning\Filth.2013.BDRip.X264-AMIABLE.mkv -an -an -s 320x180 -vframes 1 -f image2 pipe:
  282. INFO  2014-02-20 18:48:35.996 [New I/O server worker #1-3] Successfully initialized buffer to 1,048,576 bytes.
  283. DEBUG 2014-02-20 18:48:35.997 [New I/O server worker #1-3] Attaching thread: ffmpeg.exe-4
  284. DEBUG 2014-02-20 18:48:36.043 [Thread-26] ffmpeg version N-55607-g2c1a215 Copyright (c) 2000-2013 the FFmpeg developers
  285. DEBUG 2014-02-20 18:48:36.043 [Thread-26]   built on Aug 16 2013 20:10:34 with gcc 4.7.3 (GCC)
  286. DEBUG 2014-02-20 18:48:36.043 [Thread-26]   configuration: --enable-gpl --enable-version3 --disable-w32threads --enable-avisynth --enable-bzlib --enable-fontconfig --enable-frei0r --enable-gnutls --enable-iconv --enable-libass --enable-libbluray --enable-libcaca --enable-libfreetype --enable-libgsm --enable-libilbc --enable-libmodplug --enable-libmp3lame --enable-libopencore-amrnb --enable-libopencore-amrwb --enable-libopenjpeg --enable-libopus --enable-librtmp --enable-libschroedinger --enable-libsoxr --enable-libspeex --enable-libtheora --enable-libtwolame --enable-libvo-aacenc --enable-libvo-amrwbenc --enable-libvorbis --enable-libvpx --enable-libx264 --enable-libxavs --enable-libxvid --enable-zlib
  287. DEBUG 2014-02-20 18:48:36.043 [Thread-26]   libavutil      52. 42.100 / 52. 42.100
  288. DEBUG 2014-02-20 18:48:36.043 [Thread-26]   libavcodec     55. 28.100 / 55. 28.100
  289. DEBUG 2014-02-20 18:48:36.043 [Thread-26]   libavformat    55. 13.103 / 55. 13.103
  290. DEBUG 2014-02-20 18:48:36.043 [Thread-26]   libavdevice    55.  3.100 / 55.  3.100
  291. DEBUG 2014-02-20 18:48:36.044 [Thread-26]   libavfilter     3. 82.100 /  3. 82.100
  292. DEBUG 2014-02-20 18:48:36.044 [Thread-26]   libswscale      2.  5.100 /  2.  5.100
  293. DEBUG 2014-02-20 18:48:36.044 [Thread-26]   libswresample   0. 17.103 /  0. 17.103
  294. DEBUG 2014-02-20 18:48:36.044 [Thread-26]   libpostproc    52.  3.100 / 52.  3.100
  295. DEBUG 2014-02-20 18:48:36.059 [Thread-26] Input #0, matroska,webm, from 'C:\Users\Arnie\Desktop\Burning\Filth.2013.BDRip.X264-AMIABLE.mkv':
  296. DEBUG 2014-02-20 18:48:36.059 [Thread-26]   Metadata:
  297. DEBUG 2014-02-20 18:48:36.059 [Thread-26]     creation_time   : 2014-02-05 22:19:29
  298. DEBUG 2014-02-20 18:48:36.059 [Thread-26]   Duration: 01:37:22.57, start: 0.000000, bitrate: 925 kb/s
  299. DEBUG 2014-02-20 18:48:36.059 [Thread-26]     Chapter #0.0: start 0.000000, end 495.500000
  300. DEBUG 2014-02-20 18:48:36.060 [Thread-26]     Metadata:
  301. DEBUG 2014-02-20 18:48:36.060 [Thread-26]       title           : 00:00:00.000
  302. DEBUG 2014-02-20 18:48:36.060 [Thread-26]     Chapter #0.1: start 495.500000, end 956.792000
  303. DEBUG 2014-02-20 18:48:36.060 [Thread-26]     Metadata:
  304. DEBUG 2014-02-20 18:48:36.060 [Thread-26]       title           : 00:08:15.500
  305. DEBUG 2014-02-20 18:48:36.060 [Thread-26]     Chapter #0.2: start 956.792000, end 1478.667000
  306. DEBUG 2014-02-20 18:48:36.060 [Thread-26]     Metadata:
  307. DEBUG 2014-02-20 18:48:36.060 [Thread-26]       title           : 00:15:56.792
  308. DEBUG 2014-02-20 18:48:36.060 [Thread-26]     Chapter #0.3: start 1478.667000, end 1956.125000
  309. DEBUG 2014-02-20 18:48:36.060 [Thread-26]     Metadata:
  310. DEBUG 2014-02-20 18:48:36.060 [Thread-26]       title           : 00:24:38.667
  311. DEBUG 2014-02-20 18:48:36.060 [Thread-26]     Chapter #0.4: start 1956.125000, end 2455.917000
  312. DEBUG 2014-02-20 18:48:36.061 [Thread-26]     Metadata:
  313. DEBUG 2014-02-20 18:48:36.061 [Thread-26]       title           : 00:32:36.125
  314. DEBUG 2014-02-20 18:48:36.061 [Thread-26]     Chapter #0.5: start 2455.917000, end 2880.458000
  315. DEBUG 2014-02-20 18:48:36.061 [Thread-26]     Metadata:
  316. DEBUG 2014-02-20 18:48:36.061 [Thread-26]       title           : 00:40:55.917
  317. DEBUG 2014-02-20 18:48:36.061 [Thread-26]     Chapter #0.6: start 2880.458000, end 3369.000000
  318. DEBUG 2014-02-20 18:48:36.061 [Thread-26]     Metadata:
  319. DEBUG 2014-02-20 18:48:36.061 [Thread-26]       title           : 00:48:00.458
  320. DEBUG 2014-02-20 18:48:36.061 [Thread-26]     Chapter #0.7: start 3369.000000, end 3823.833000
  321. DEBUG 2014-02-20 18:48:36.061 [Thread-26]     Metadata:
  322. DEBUG 2014-02-20 18:48:36.061 [Thread-26]       title           : 00:56:09.000
  323. DEBUG 2014-02-20 18:48:36.061 [Thread-26]     Chapter #0.8: start 3823.833000, end 4447.708000
  324. DEBUG 2014-02-20 18:48:36.061 [Thread-26]     Metadata:
  325. DEBUG 2014-02-20 18:48:36.062 [Thread-26]       title           : 01:03:43.833
  326. DEBUG 2014-02-20 18:48:36.062 [Thread-26]     Chapter #0.9: start 4447.708000, end 4754.958000
  327. DEBUG 2014-02-20 18:48:36.062 [Thread-26]     Metadata:
  328. DEBUG 2014-02-20 18:48:36.062 [Thread-26]       title           : 01:14:07.708
  329. DEBUG 2014-02-20 18:48:36.062 [Thread-26]     Chapter #0.10: start 4754.958000, end 5299.167000
  330. DEBUG 2014-02-20 18:48:36.062 [Thread-26]     Metadata:
  331. DEBUG 2014-02-20 18:48:36.062 [Thread-26]       title           : 01:19:14.958
  332. DEBUG 2014-02-20 18:48:36.062 [Thread-26]     Chapter #0.11: start 5299.167000, end 5842.569000
  333. DEBUG 2014-02-20 18:48:36.062 [Thread-26]     Metadata:
  334. DEBUG 2014-02-20 18:48:36.062 [Thread-26]       title           : 01:28:19.167
  335. DEBUG 2014-02-20 18:48:36.063 [Thread-26]     Stream #0:0(eng): Video: h264 (High), yuv420p, 720x306 [SAR 1:1 DAR 40:17], 24 fps, 24 tbr, 1k tbn, 48 tbc (default)
  336. DEBUG 2014-02-20 18:48:36.063 [Thread-26]     Stream #0:1(eng): Audio: aac, 48000 Hz, stereo, fltp (default)
  337. DEBUG 2014-02-20 18:48:36.063 [Thread-26]     Stream #0:2(eng): Subtitle: subrip
  338. DEBUG 2014-02-20 18:48:36.063 [Thread-26]     Metadata:
  339. DEBUG 2014-02-20 18:48:36.063 [Thread-26]       title           : SDH
  340. DEBUG 2014-02-20 18:48:36.063 [Thread-26]     Stream #0:3(eng): Subtitle: subrip
  341. DEBUG 2014-02-20 18:48:36.066 [Thread-26] [swscaler @ 023d3800] deprecated pixel format used, make sure you did set range correctly
  342. DEBUG 2014-02-20 18:48:36.069 [Thread-26] Output #0, image2, to 'pipe:':
  343. DEBUG 2014-02-20 18:48:36.069 [Thread-26]   Metadata:
  344. DEBUG 2014-02-20 18:48:36.069 [Thread-26]     encoder         : Lavf55.13.103
  345. DEBUG 2014-02-20 18:48:36.069 [Thread-26]     Chapter #0.0: start 0.000000, end 493.500000
  346. DEBUG 2014-02-20 18:48:36.069 [Thread-26]     Metadata:
  347. DEBUG 2014-02-20 18:48:36.069 [Thread-26]       title           : 00:00:00.000
  348. DEBUG 2014-02-20 18:48:36.070 [Thread-26]     Chapter #0.1: start 493.500000, end 954.792000
  349. DEBUG 2014-02-20 18:48:36.070 [Thread-26]     Metadata:
  350. DEBUG 2014-02-20 18:48:36.070 [Thread-26]       title           : 00:08:15.500
  351. DEBUG 2014-02-20 18:48:36.070 [Thread-26]     Chapter #0.2: start 954.792000, end 1476.667000
  352. DEBUG 2014-02-20 18:48:36.070 [Thread-26]     Metadata:
  353. DEBUG 2014-02-20 18:48:36.070 [Thread-26]       title           : 00:15:56.792
  354. DEBUG 2014-02-20 18:48:36.070 [Thread-26]     Chapter #0.3: start 1476.667000, end 1954.125000
  355. DEBUG 2014-02-20 18:48:36.070 [Thread-26]     Metadata:
  356. DEBUG 2014-02-20 18:48:36.070 [Thread-26]       title           : 00:24:38.667
  357. DEBUG 2014-02-20 18:48:36.071 [Thread-26]     Chapter #0.4: start 1954.125000, end 2453.917000
  358. DEBUG 2014-02-20 18:48:36.071 [Thread-26]     Metadata:
  359. DEBUG 2014-02-20 18:48:36.071 [Thread-26]       title           : 00:32:36.125
  360. DEBUG 2014-02-20 18:48:36.071 [Thread-26]     Chapter #0.5: start 2453.917000, end 2878.458000
  361. DEBUG 2014-02-20 18:48:36.071 [Thread-26]     Metadata:
  362. DEBUG 2014-02-20 18:48:36.071 [Thread-26]       title           : 00:40:55.917
  363. DEBUG 2014-02-20 18:48:36.071 [Thread-26]     Chapter #0.6: start 2878.458000, end 3367.000000
  364. DEBUG 2014-02-20 18:48:36.071 [Thread-26]     Metadata:
  365. DEBUG 2014-02-20 18:48:36.072 [Thread-26]       title           : 00:48:00.458
  366. DEBUG 2014-02-20 18:48:36.072 [Thread-26]     Chapter #0.7: start 3367.000000, end 3821.833000
  367. DEBUG 2014-02-20 18:48:36.072 [Thread-26]     Metadata:
  368. DEBUG 2014-02-20 18:48:36.072 [Thread-26]       title           : 00:56:09.000
  369. DEBUG 2014-02-20 18:48:36.072 [Thread-26]     Chapter #0.8: start 3821.833000, end 4445.708000
  370. DEBUG 2014-02-20 18:48:36.072 [Thread-26]     Metadata:
  371. DEBUG 2014-02-20 18:48:36.072 [Thread-26]       title           : 01:03:43.833
  372. DEBUG 2014-02-20 18:48:36.072 [Thread-26]     Chapter #0.9: start 4445.708000, end 4752.958000
  373. DEBUG 2014-02-20 18:48:36.072 [Thread-26]     Metadata:
  374. DEBUG 2014-02-20 18:48:36.072 [Thread-26]       title           : 01:14:07.708
  375. DEBUG 2014-02-20 18:48:36.072 [Thread-26]     Chapter #0.10: start 4752.958000, end 5297.167000
  376. DEBUG 2014-02-20 18:48:36.072 [Thread-26]     Metadata:
  377. DEBUG 2014-02-20 18:48:36.073 [Thread-26]       title           : 01:19:14.958
  378. DEBUG 2014-02-20 18:48:36.073 [Thread-26]     Chapter #0.11: start 5297.167000, end 5840.569000
  379. DEBUG 2014-02-20 18:48:36.073 [Thread-26]     Metadata:
  380. DEBUG 2014-02-20 18:48:36.073 [Thread-26]       title           : 01:28:19.167
  381. DEBUG 2014-02-20 18:48:36.073 [Thread-26]     Stream #0:0(eng): Video: mjpeg, yuvj420p, 320x180 [SAR 45:34 DAR 40:17], q=2-31, 200 kb/s, 90k tbn, 24 tbc (default)
  382. DEBUG 2014-02-20 18:48:36.073 [Thread-26] Stream mapping:
  383. DEBUG 2014-02-20 18:48:36.073 [Thread-26]   Stream #0:0 -> #0:0 (h264 -> mjpeg)
  384. DEBUG 2014-02-20 18:48:36.073 [Thread-26] Press [q] to stop, [?] for help
  385. DEBUG 2014-02-20 18:48:36.095 [Thread-26] frame=    1 fps=0.0 q=0.0 Lsize=N/A time=00:00:00.04 bitrate=N/A    
  386. DEBUG 2014-02-20 18:48:36.095 [Thread-26]
  387. DEBUG 2014-02-20 18:48:36.095 [Thread-26] video:3kB audio:0kB subtitle:0 global headers:0kB muxing overhead -100.713822%
  388. DEBUG 2014-02-20 18:48:36.212 [New I/O server worker #1-5] Starting "C:\Program Files (x86)\PS3 Media Server\win32\ffmpeg.exe" -ss 2 -i C:\Users\Arnie\Desktop\Burning\girls.s03e07.hdtv.x264-killers.mp4 -an -an -s 320x180 -vframes 1 -f image2 pipe:
  389. INFO  2014-02-20 18:48:36.216 [New I/O server worker #1-5] Successfully initialized buffer to 1,048,576 bytes.
  390. DEBUG 2014-02-20 18:48:36.217 [New I/O server worker #1-5] Attaching thread: ffmpeg.exe-5
  391. DEBUG 2014-02-20 18:48:36.267 [Thread-30] ffmpeg version N-55607-g2c1a215 Copyright (c) 2000-2013 the FFmpeg developers
  392. DEBUG 2014-02-20 18:48:36.267 [Thread-30]   built on Aug 16 2013 20:10:34 with gcc 4.7.3 (GCC)
  393. DEBUG 2014-02-20 18:48:36.267 [Thread-30]   configuration: --enable-gpl --enable-version3 --disable-w32threads --enable-avisynth --enable-bzlib --enable-fontconfig --enable-frei0r --enable-gnutls --enable-iconv --enable-libass --enable-libbluray --enable-libcaca --enable-libfreetype --enable-libgsm --enable-libilbc --enable-libmodplug --enable-libmp3lame --enable-libopencore-amrnb --enable-libopencore-amrwb --enable-libopenjpeg --enable-libopus --enable-librtmp --enable-libschroedinger --enable-libsoxr --enable-libspeex --enable-libtheora --enable-libtwolame --enable-libvo-aacenc --enable-libvo-amrwbenc --enable-libvorbis --enable-libvpx --enable-libx264 --enable-libxavs --enable-libxvid --enable-zlib
  394. DEBUG 2014-02-20 18:48:36.267 [Thread-30]   libavutil      52. 42.100 / 52. 42.100
  395. DEBUG 2014-02-20 18:48:36.267 [Thread-30]   libavcodec     55. 28.100 / 55. 28.100
  396. DEBUG 2014-02-20 18:48:36.267 [Thread-30]   libavformat    55. 13.103 / 55. 13.103
  397. DEBUG 2014-02-20 18:48:36.267 [Thread-30]   libavdevice    55.  3.100 / 55.  3.100
  398. DEBUG 2014-02-20 18:48:36.267 [Thread-30]   libavfilter     3. 82.100 /  3. 82.100
  399. DEBUG 2014-02-20 18:48:36.267 [Thread-30]   libswscale      2.  5.100 /  2.  5.100
  400. DEBUG 2014-02-20 18:48:36.267 [Thread-30]   libswresample   0. 17.103 /  0. 17.103
  401. DEBUG 2014-02-20 18:48:36.267 [Thread-30]   libpostproc    52.  3.100 / 52.  3.100
  402. DEBUG 2014-02-20 18:48:36.279 [Thread-30] Input #0, mov,mp4,m4a,3gp,3g2,mj2, from 'C:\Users\Arnie\Desktop\Burning\girls.s03e07.hdtv.x264-killers.mp4':
  403. DEBUG 2014-02-20 18:48:36.279 [Thread-30]   Metadata:
  404. DEBUG 2014-02-20 18:48:36.279 [Thread-30]     major_brand     : isom
  405. DEBUG 2014-02-20 18:48:36.279 [Thread-30]     minor_version   : 1
  406. DEBUG 2014-02-20 18:48:36.279 [Thread-30]     compatible_brands: isom
  407. DEBUG 2014-02-20 18:48:36.279 [Thread-30]     creation_time   : 2014-02-17 03:37:26
  408. DEBUG 2014-02-20 18:48:36.280 [Thread-30]   Duration: 00:29:59.91, start: 0.000000, bitrate: 891 kb/s
  409. DEBUG 2014-02-20 18:48:36.280 [Thread-30]     Stream #0:0(und): Audio: aac (mp4a / 0x6134706D), 48000 Hz, stereo, fltp, 105 kb/s
  410. DEBUG 2014-02-20 18:48:36.280 [Thread-30]     Metadata:
  411. DEBUG 2014-02-20 18:48:36.280 [Thread-30]       creation_time   : 2014-02-17 03:37:26
  412. DEBUG 2014-02-20 18:48:36.280 [Thread-30]       handler_name    : GPAC ISO Audio Handler
  413. DEBUG 2014-02-20 18:48:36.280 [Thread-30]     Stream #0:1(und): Video: h264 (High) (avc1 / 0x31637661), yuv420p, 720x404, 782 kb/s, 23.98 fps, 23.98 tbr, 24k tbn, 47.95 tbc
  414. DEBUG 2014-02-20 18:48:36.281 [Thread-30]     Metadata:
  415. DEBUG 2014-02-20 18:48:36.281 [Thread-30]       creation_time   : 2014-02-17 03:30:43
  416. DEBUG 2014-02-20 18:48:36.281 [Thread-30]       handler_name    : L-SMASH Video Media Handler
  417. DEBUG 2014-02-20 18:48:36.284 [Thread-30] [swscaler @ 0490b7c0] deprecated pixel format used, make sure you did set range correctly
  418. DEBUG 2014-02-20 18:48:36.286 [Thread-30] Output #0, image2, to 'pipe:':
  419. DEBUG 2014-02-20 18:48:36.287 [Thread-30]   Metadata:
  420. DEBUG 2014-02-20 18:48:36.287 [Thread-30]     major_brand     : isom
  421. DEBUG 2014-02-20 18:48:36.287 [Thread-30]     minor_version   : 1
  422. DEBUG 2014-02-20 18:48:36.287 [Thread-30]     compatible_brands: isom
  423. DEBUG 2014-02-20 18:48:36.287 [Thread-30]     encoder         : Lavf55.13.103
  424. DEBUG 2014-02-20 18:48:36.287 [Thread-30]     Stream #0:0(und): Video: mjpeg, yuvj420p, 320x180, q=2-31, 200 kb/s, 90k tbn, 23.98 tbc
  425. DEBUG 2014-02-20 18:48:36.287 [Thread-30]     Metadata:
  426. DEBUG 2014-02-20 18:48:36.287 [Thread-30]       creation_time   : 2014-02-17 03:30:43
  427. DEBUG 2014-02-20 18:48:36.287 [Thread-30]       handler_name    : L-SMASH Video Media Handler
  428. DEBUG 2014-02-20 18:48:36.287 [Thread-30] Stream mapping:
  429. DEBUG 2014-02-20 18:48:36.287 [Thread-30]   Stream #0:1 -> #0:0 (h264 -> mjpeg)
  430. DEBUG 2014-02-20 18:48:36.287 [Thread-30] Press [q] to stop, [?] for help
  431. DEBUG 2014-02-20 18:48:36.304 [Thread-30] frame=    1 fps=0.0 q=0.0 Lsize=N/A time=00:00:00.04 bitrate=N/A    
  432. DEBUG 2014-02-20 18:48:36.304 [Thread-30]
  433. DEBUG 2014-02-20 18:48:36.304 [Thread-30] video:10kB audio:0kB subtitle:0 global headers:0kB muxing overhead -100.225942%
  434. DEBUG 2014-02-20 18:48:36.591 [New I/O server worker #1-6] Starting "C:\Program Files (x86)\PS3 Media Server\win32\ffmpeg.exe" -ss 2 -i C:\Users\Arnie\Desktop\Burning\predators.2010.repack.bdrip.xvid-imbt-cd1.avi -an -an -s 320x180 -vframes 1 -f image2 pipe:
  435. INFO  2014-02-20 18:48:36.595 [New I/O server worker #1-6] Successfully initialized buffer to 1,048,576 bytes.
  436. DEBUG 2014-02-20 18:48:36.596 [New I/O server worker #1-6] Attaching thread: ffmpeg.exe-6
  437. DEBUG 2014-02-20 18:48:36.641 [Thread-34] ffmpeg version N-55607-g2c1a215 Copyright (c) 2000-2013 the FFmpeg developers
  438. DEBUG 2014-02-20 18:48:36.641 [Thread-34]   built on Aug 16 2013 20:10:34 with gcc 4.7.3 (GCC)
  439. DEBUG 2014-02-20 18:48:36.641 [Thread-34]   configuration: --enable-gpl --enable-version3 --disable-w32threads --enable-avisynth --enable-bzlib --enable-fontconfig --enable-frei0r --enable-gnutls --enable-iconv --enable-libass --enable-libbluray --enable-libcaca --enable-libfreetype --enable-libgsm --enable-libilbc --enable-libmodplug --enable-libmp3lame --enable-libopencore-amrnb --enable-libopencore-amrwb --enable-libopenjpeg --enable-libopus --enable-librtmp --enable-libschroedinger --enable-libsoxr --enable-libspeex --enable-libtheora --enable-libtwolame --enable-libvo-aacenc --enable-libvo-amrwbenc --enable-libvorbis --enable-libvpx --enable-libx264 --enable-libxavs --enable-libxvid --enable-zlib
  440. DEBUG 2014-02-20 18:48:36.641 [Thread-34]   libavutil      52. 42.100 / 52. 42.100
  441. DEBUG 2014-02-20 18:48:36.641 [Thread-34]   libavcodec     55. 28.100 / 55. 28.100
  442. DEBUG 2014-02-20 18:48:36.641 [Thread-34]   libavformat    55. 13.103 / 55. 13.103
  443. DEBUG 2014-02-20 18:48:36.641 [Thread-34]   libavdevice    55.  3.100 / 55.  3.100
  444. DEBUG 2014-02-20 18:48:36.641 [Thread-34]   libavfilter     3. 82.100 /  3. 82.100
  445. DEBUG 2014-02-20 18:48:36.641 [Thread-34]   libswscale      2.  5.100 /  2.  5.100
  446. DEBUG 2014-02-20 18:48:36.642 [Thread-34]   libswresample   0. 17.103 /  0. 17.103
  447. DEBUG 2014-02-20 18:48:36.642 [Thread-34]   libpostproc    52.  3.100 / 52.  3.100
  448. DEBUG 2014-02-20 18:48:36.816 [Thread-34] Input #0, avi, from 'C:\Users\Arnie\Desktop\Burning\predators.2010.repack.bdrip.xvid-imbt-cd1.avi':
  449. DEBUG 2014-02-20 18:48:36.816 [Thread-34]   Metadata:
  450. DEBUG 2014-02-20 18:48:36.816 [Thread-34]     encoder         : VirtualDubMod 1.5.10.2 (build 2540/release)
  451. DEBUG 2014-02-20 18:48:36.816 [Thread-34]   Duration: 00:39:24.62, start: 0.000000, bitrate: 2482 kb/s
  452. DEBUG 2014-02-20 18:48:36.816 [Thread-34]     Stream #0:0: Video: mpeg4 (Simple Profile) (XVID / 0x44495658), yuv420p, 640x272 [SAR 1:1 DAR 40:17], 23.98 tbr, 23.98 tbn, 23.98 tbc
  453. DEBUG 2014-02-20 18:48:36.817 [Thread-34]     Stream #0:1: Audio: ac3 ([0] [0][0] / 0x2000), 48000 Hz, 5.1(side), fltp, 448 kb/s
  454. DEBUG 2014-02-20 18:48:36.819 [Thread-34] [swscaler @ 02564bc0] deprecated pixel format used, make sure you did set range correctly
  455. DEBUG 2014-02-20 18:48:36.822 [Thread-34] Output #0, image2, to 'pipe:':
  456. DEBUG 2014-02-20 18:48:36.822 [Thread-34]   Metadata:
  457. DEBUG 2014-02-20 18:48:36.822 [Thread-34]     encoder         : Lavf55.13.103
  458. DEBUG 2014-02-20 18:48:36.822 [Thread-34]     Stream #0:0: Video: mjpeg, yuvj420p, 320x180 [SAR 45:34 DAR 40:17], q=2-31, 200 kb/s, 90k tbn, 23.98 tbc
  459. DEBUG 2014-02-20 18:48:36.822 [Thread-34] Stream mapping:
  460. DEBUG 2014-02-20 18:48:36.822 [Thread-34]   Stream #0:0 -> #0:0 (mpeg4 -> mjpeg)
  461. DEBUG 2014-02-20 18:48:36.822 [Thread-34] Press [q] to stop, [?] for help
  462. DEBUG 2014-02-20 18:48:36.827 [Thread-34] frame=    1 fps=0.0 q=0.0 Lsize=N/A time=00:00:00.04 bitrate=N/A    
  463. DEBUG 2014-02-20 18:48:36.827 [Thread-34]
  464. DEBUG 2014-02-20 18:48:36.828 [Thread-34] video:2kB audio:0kB subtitle:0 global headers:0kB muxing overhead -100.996828%
  465. DEBUG 2014-02-20 18:48:37.062 [New I/O server worker #1-7] Starting "C:\Program Files (x86)\PS3 Media Server\win32\ffmpeg.exe" -ss 2 -i C:\Users\Arnie\Desktop\Burning\predators.2010.repack.bdrip.xvid-imbt-cd2.avi -an -an -s 320x180 -vframes 1 -f image2 pipe:
  466. INFO  2014-02-20 18:48:37.066 [New I/O server worker #1-7] Successfully initialized buffer to 1,048,576 bytes.
  467. DEBUG 2014-02-20 18:48:37.067 [New I/O server worker #1-7] Attaching thread: ffmpeg.exe-7
  468. DEBUG 2014-02-20 18:48:37.106 [Thread-38] ffmpeg version N-55607-g2c1a215 Copyright (c) 2000-2013 the FFmpeg developers
  469. DEBUG 2014-02-20 18:48:37.106 [Thread-38]   built on Aug 16 2013 20:10:34 with gcc 4.7.3 (GCC)
  470. DEBUG 2014-02-20 18:48:37.106 [Thread-38]   configuration: --enable-gpl --enable-version3 --disable-w32threads --enable-avisynth --enable-bzlib --enable-fontconfig --enable-frei0r --enable-gnutls --enable-iconv --enable-libass --enable-libbluray --enable-libcaca --enable-libfreetype --enable-libgsm --enable-libilbc --enable-libmodplug --enable-libmp3lame --enable-libopencore-amrnb --enable-libopencore-amrwb --enable-libopenjpeg --enable-libopus --enable-librtmp --enable-libschroedinger --enable-libsoxr --enable-libspeex --enable-libtheora --enable-libtwolame --enable-libvo-aacenc --enable-libvo-amrwbenc --enable-libvorbis --enable-libvpx --enable-libx264 --enable-libxavs --enable-libxvid --enable-zlib
  471. DEBUG 2014-02-20 18:48:37.106 [Thread-38]   libavutil      52. 42.100 / 52. 42.100
  472. DEBUG 2014-02-20 18:48:37.106 [Thread-38]   libavcodec     55. 28.100 / 55. 28.100
  473. DEBUG 2014-02-20 18:48:37.106 [Thread-38]   libavformat    55. 13.103 / 55. 13.103
  474. DEBUG 2014-02-20 18:48:37.106 [Thread-38]   libavdevice    55.  3.100 / 55.  3.100
  475. DEBUG 2014-02-20 18:48:37.106 [Thread-38]   libavfilter     3. 82.100 /  3. 82.100
  476. DEBUG 2014-02-20 18:48:37.106 [Thread-38]   libswscale      2.  5.100 /  2.  5.100
  477. DEBUG 2014-02-20 18:48:37.107 [Thread-38]   libswresample   0. 17.103 /  0. 17.103
  478. DEBUG 2014-02-20 18:48:37.107 [Thread-38]   libpostproc    52.  3.100 / 52.  3.100
  479. DEBUG 2014-02-20 18:48:37.405 [Thread-38] Input #0, avi, from 'C:\Users\Arnie\Desktop\Burning\predators.2010.repack.bdrip.xvid-imbt-cd2.avi':
  480. DEBUG 2014-02-20 18:48:37.406 [Thread-38]   Metadata:
  481. DEBUG 2014-02-20 18:48:37.406 [Thread-38]     encoder         : VirtualDubMod 1.5.10.2 (build 2540/release)
  482. DEBUG 2014-02-20 18:48:37.406 [Thread-38]   Duration: 01:07:41.31, start: 0.000000, bitrate: 1444 kb/s
  483. DEBUG 2014-02-20 18:48:37.406 [Thread-38]     Stream #0:0: Video: mpeg4 (Simple Profile) (XVID / 0x44495658), yuv420p, 640x272 [SAR 1:1 DAR 40:17], 23.98 tbr, 23.98 tbn, 23.98 tbc
  484. DEBUG 2014-02-20 18:48:37.406 [Thread-38]     Stream #0:1: Audio: ac3 ([0] [0][0] / 0x2000), 48000 Hz, 5.1(side), fltp, 448 kb/s
  485. DEBUG 2014-02-20 18:48:37.409 [Thread-38] [swscaler @ 03f04bc0] deprecated pixel format used, make sure you did set range correctly
  486. DEBUG 2014-02-20 18:48:37.411 [Thread-38] Output #0, image2, to 'pipe:':
  487. DEBUG 2014-02-20 18:48:37.411 [Thread-38]   Metadata:
  488. DEBUG 2014-02-20 18:48:37.411 [Thread-38]     encoder         : Lavf55.13.103
  489. DEBUG 2014-02-20 18:48:37.411 [Thread-38]     Stream #0:0: Video: mjpeg, yuvj420p, 320x180 [SAR 45:34 DAR 40:17], q=2-31, 200 kb/s, 90k tbn, 23.98 tbc
  490. DEBUG 2014-02-20 18:48:37.411 [Thread-38] Stream mapping:
  491. DEBUG 2014-02-20 18:48:37.411 [Thread-38]   Stream #0:0 -> #0:0 (mpeg4 -> mjpeg)
  492. DEBUG 2014-02-20 18:48:37.412 [Thread-38] Press [q] to stop, [?] for help
  493. DEBUG 2014-02-20 18:48:37.430 [Thread-38] frame=    1 fps=0.0 q=0.0 Lsize=N/A time=00:00:00.04 bitrate=N/A    
  494. DEBUG 2014-02-20 18:48:37.430 [Thread-38]
  495. DEBUG 2014-02-20 18:48:37.430 [Thread-38] video:11kB audio:0kB subtitle:0 global headers:0kB muxing overhead -100.197345%
  496. DEBUG 2014-02-20 18:48:37.718 [New I/O server worker #1-8] Starting "C:\Program Files (x86)\PS3 Media Server\win32\ffmpeg.exe" -ss 2 -i C:\Users\Arnie\Desktop\Burning\revenge.303.hdtv-lol.mp4 -an -an -s 320x180 -vframes 1 -f image2 pipe:
  497. INFO  2014-02-20 18:48:37.721 [New I/O server worker #1-8] Successfully initialized buffer to 1,048,576 bytes.
  498. DEBUG 2014-02-20 18:48:37.733 [New I/O server worker #1-8] Attaching thread: ffmpeg.exe-8
  499. DEBUG 2014-02-20 18:48:37.779 [Thread-42] ffmpeg version N-55607-g2c1a215 Copyright (c) 2000-2013 the FFmpeg developers
  500. DEBUG 2014-02-20 18:48:37.779 [Thread-42]   built on Aug 16 2013 20:10:34 with gcc 4.7.3 (GCC)
  501. DEBUG 2014-02-20 18:48:37.779 [Thread-42]   configuration: --enable-gpl --enable-version3 --disable-w32threads --enable-avisynth --enable-bzlib --enable-fontconfig --enable-frei0r --enable-gnutls --enable-iconv --enable-libass --enable-libbluray --enable-libcaca --enable-libfreetype --enable-libgsm --enable-libilbc --enable-libmodplug --enable-libmp3lame --enable-libopencore-amrnb --enable-libopencore-amrwb --enable-libopenjpeg --enable-libopus --enable-librtmp --enable-libschroedinger --enable-libsoxr --enable-libspeex --enable-libtheora --enable-libtwolame --enable-libvo-aacenc --enable-libvo-amrwbenc --enable-libvorbis --enable-libvpx --enable-libx264 --enable-libxavs --enable-libxvid --enable-zlib
  502. DEBUG 2014-02-20 18:48:37.779 [Thread-42]   libavutil      52. 42.100 / 52. 42.100
  503. DEBUG 2014-02-20 18:48:37.779 [Thread-42]   libavcodec     55. 28.100 / 55. 28.100
  504. DEBUG 2014-02-20 18:48:37.779 [Thread-42]   libavformat    55. 13.103 / 55. 13.103
  505. DEBUG 2014-02-20 18:48:37.779 [Thread-42]   libavdevice    55.  3.100 / 55.  3.100
  506. DEBUG 2014-02-20 18:48:37.779 [Thread-42]   libavfilter     3. 82.100 /  3. 82.100
  507. DEBUG 2014-02-20 18:48:37.779 [Thread-42]   libswscale      2.  5.100 /  2.  5.100
  508. DEBUG 2014-02-20 18:48:37.779 [Thread-42]   libswresample   0. 17.103 /  0. 17.103
  509. DEBUG 2014-02-20 18:48:37.779 [Thread-42]   libpostproc    52.  3.100 / 52.  3.100
  510. DEBUG 2014-02-20 18:48:37.792 [Thread-42] Input #0, mov,mp4,m4a,3gp,3g2,mj2, from 'C:\Users\Arnie\Desktop\Burning\revenge.303.hdtv-lol.mp4':
  511. DEBUG 2014-02-20 18:48:37.792 [Thread-42]   Metadata:
  512. DEBUG 2014-02-20 18:48:37.792 [Thread-42]     major_brand     : isom
  513. DEBUG 2014-02-20 18:48:37.792 [Thread-42]     minor_version   : 1
  514. DEBUG 2014-02-20 18:48:37.792 [Thread-42]     compatible_brands: isom
  515. DEBUG 2014-02-20 18:48:37.792 [Thread-42]     creation_time   : 2013-10-12 14:20:33
  516. DEBUG 2014-02-20 18:48:37.793 [Thread-42]   Duration: 00:43:29.15, start: 0.000000, bitrate: 985 kb/s
  517. DEBUG 2014-02-20 18:48:37.793 [Thread-42]     Stream #0:0(und): Video: h264 (High) (avc1 / 0x31637661), yuv420p, 720x404, 860 kb/s, 23.98 fps, 23.98 tbr, 24k tbn, 47.95 tbc
  518. DEBUG 2014-02-20 18:48:37.793 [Thread-42]     Metadata:
  519. DEBUG 2014-02-20 18:48:37.793 [Thread-42]       creation_time   : 2013-10-13 12:41:26
  520. DEBUG 2014-02-20 18:48:37.793 [Thread-42]       handler_name    : GPAC ISO Video Handler
  521. DEBUG 2014-02-20 18:48:37.793 [Thread-42]     Stream #0:1(und): Audio: aac (mp4a / 0x6134706D), 48000 Hz, stereo, fltp, 121 kb/s
  522. DEBUG 2014-02-20 18:48:37.793 [Thread-42]     Metadata:
  523. DEBUG 2014-02-20 18:48:37.794 [Thread-42]       creation_time   : 2013-10-12 14:20:39
  524. DEBUG 2014-02-20 18:48:37.794 [Thread-42]       handler_name    : GPAC ISO Audio Handler
  525. DEBUG 2014-02-20 18:48:37.796 [Thread-42] [swscaler @ 04f38020] deprecated pixel format used, make sure you did set range correctly
  526. DEBUG 2014-02-20 18:48:37.799 [Thread-42] Output #0, image2, to 'pipe:':
  527. DEBUG 2014-02-20 18:48:37.799 [Thread-42]   Metadata:
  528. DEBUG 2014-02-20 18:48:37.799 [Thread-42]     major_brand     : isom
  529. DEBUG 2014-02-20 18:48:37.799 [Thread-42]     minor_version   : 1
  530. DEBUG 2014-02-20 18:48:37.799 [Thread-42]     compatible_brands: isom
  531. DEBUG 2014-02-20 18:48:37.800 [Thread-42]     encoder         : Lavf55.13.103
  532. DEBUG 2014-02-20 18:48:37.800 [Thread-42]     Stream #0:0(und): Video: mjpeg, yuvj420p, 320x180, q=2-31, 200 kb/s, 90k tbn, 23.98 tbc
  533. DEBUG 2014-02-20 18:48:37.800 [Thread-42]     Metadata:
  534. DEBUG 2014-02-20 18:48:37.800 [Thread-42]       creation_time   : 2013-10-13 12:41:26
  535. DEBUG 2014-02-20 18:48:37.800 [Thread-42]       handler_name    : GPAC ISO Video Handler
  536. DEBUG 2014-02-20 18:48:37.800 [Thread-42] Stream mapping:
  537. DEBUG 2014-02-20 18:48:37.800 [Thread-42]   Stream #0:0 -> #0:0 (h264 -> mjpeg)
  538. DEBUG 2014-02-20 18:48:37.800 [Thread-42] Press [q] to stop, [?] for help
  539. DEBUG 2014-02-20 18:48:37.830 [Thread-42] frame=    1 fps=0.0 q=0.0 Lsize=N/A time=00:00:00.04 bitrate=N/A    
  540. DEBUG 2014-02-20 18:48:37.830 [Thread-42]
  541. DEBUG 2014-02-20 18:48:37.830 [Thread-42] video:6kB audio:0kB subtitle:0 global headers:0kB muxing overhead -100.340927%
  542. DEBUG 2014-02-20 18:48:37.905 [Buffered IO End Checker] Stopping process: ffmpeg.exe-1
  543. INFO  2014-02-20 18:48:37.905 [Buffered IO End Checker] Destroying buffer
  544. DEBUG 2014-02-20 18:48:38.053 [New I/O server worker #1-1] Starting "C:\Program Files (x86)\PS3 Media Server\win32\ffmpeg.exe" -ss 2 -i C:\Users\Arnie\Desktop\Burning\The.Walking.Dead.S04E10.HDTV.x264-EXCELLENCE.mp4 -an -an -s 320x180 -vframes 1 -f image2 pipe:
  545. INFO  2014-02-20 18:48:38.056 [New I/O server worker #1-1] Successfully initialized buffer to 1,048,576 bytes.
  546. DEBUG 2014-02-20 18:48:38.060 [New I/O server worker #1-1] Attaching thread: ffmpeg.exe-9
  547. DEBUG 2014-02-20 18:48:38.084 [Buffered IO End Checker] Stopping process: ffmpeg.exe-2
  548. INFO  2014-02-20 18:48:38.084 [Buffered IO End Checker] Destroying buffer
  549. DEBUG 2014-02-20 18:48:38.096 [Thread-46] ffmpeg version N-55607-g2c1a215 Copyright (c) 2000-2013 the FFmpeg developers
  550. DEBUG 2014-02-20 18:48:38.096 [Thread-46]   built on Aug 16 2013 20:10:34 with gcc 4.7.3 (GCC)
  551. DEBUG 2014-02-20 18:48:38.096 [Thread-46]   configuration: --enable-gpl --enable-version3 --disable-w32threads --enable-avisynth --enable-bzlib --enable-fontconfig --enable-frei0r --enable-gnutls --enable-iconv --enable-libass --enable-libbluray --enable-libcaca --enable-libfreetype --enable-libgsm --enable-libilbc --enable-libmodplug --enable-libmp3lame --enable-libopencore-amrnb --enable-libopencore-amrwb --enable-libopenjpeg --enable-libopus --enable-librtmp --enable-libschroedinger --enable-libsoxr --enable-libspeex --enable-libtheora --enable-libtwolame --enable-libvo-aacenc --enable-libvo-amrwbenc --enable-libvorbis --enable-libvpx --enable-libx264 --enable-libxavs --enable-libxvid --enable-zlib
  552. DEBUG 2014-02-20 18:48:38.096 [Thread-46]   libavutil      52. 42.100 / 52. 42.100
  553. DEBUG 2014-02-20 18:48:38.096 [Thread-46]   libavcodec     55. 28.100 / 55. 28.100
  554. DEBUG 2014-02-20 18:48:38.096 [Thread-46]   libavformat    55. 13.103 / 55. 13.103
  555. DEBUG 2014-02-20 18:48:38.096 [Thread-46]   libavdevice    55.  3.100 / 55.  3.100
  556. DEBUG 2014-02-20 18:48:38.096 [Thread-46]   libavfilter     3. 82.100 /  3. 82.100
  557. DEBUG 2014-02-20 18:48:38.096 [Thread-46]   libswscale      2.  5.100 /  2.  5.100
  558. DEBUG 2014-02-20 18:48:38.096 [Thread-46]   libswresample   0. 17.103 /  0. 17.103
  559. DEBUG 2014-02-20 18:48:38.096 [Thread-46]   libpostproc    52.  3.100 / 52.  3.100
  560. DEBUG 2014-02-20 18:48:38.111 [Thread-46] Input #0, mov,mp4,m4a,3gp,3g2,mj2, from 'C:\Users\Arnie\Desktop\Burning\The.Walking.Dead.S04E10.HDTV.x264-EXCELLENCE.mp4':
  561. DEBUG 2014-02-20 18:48:38.112 [Thread-46]   Metadata:
  562. DEBUG 2014-02-20 18:48:38.112 [Thread-46]     major_brand     : isom
  563. DEBUG 2014-02-20 18:48:38.112 [Thread-46]     minor_version   : 1
  564. DEBUG 2014-02-20 18:48:38.112 [Thread-46]     compatible_brands: isom
  565. DEBUG 2014-02-20 18:48:38.112 [Thread-46]     creation_time   : 2011-09-08 11:43:25
  566. DEBUG 2014-02-20 18:48:38.112 [Thread-46]   Duration: 00:43:12.84, start: 0.000000, bitrate: 2008 kb/s
  567. DEBUG 2014-02-20 18:48:38.112 [Thread-46]     Stream #0:0(und): Video: h264 (High) (avc1 / 0x31637661), yuv420p, 720x404 [SAR 1:1 DAR 180:101], 1873 kb/s, 23.98 fps, 23.98 tbr, 24k tbn, 47.95 tbc
  568. DEBUG 2014-02-20 18:48:38.112 [Thread-46]     Metadata:
  569. DEBUG 2014-02-20 18:48:38.112 [Thread-46]       creation_time   : 2011-09-08 11:43:25
  570. DEBUG 2014-02-20 18:48:38.113 [Thread-46]     Stream #0:1(und): Audio: aac (mp4a / 0x6134706D), 48000 Hz, stereo, fltp, 128 kb/s
  571. DEBUG 2014-02-20 18:48:38.113 [Thread-46]     Metadata:
  572. DEBUG 2014-02-20 18:48:38.113 [Thread-46]       creation_time   : 2011-09-08 11:43:25
  573. DEBUG 2014-02-20 18:48:38.115 [Thread-46] [swscaler @ 025e4fc0] deprecated pixel format used, make sure you did set range correctly
  574. DEBUG 2014-02-20 18:48:38.118 [Thread-46] Output #0, image2, to 'pipe:':
  575. DEBUG 2014-02-20 18:48:38.118 [Thread-46]   Metadata:
  576. DEBUG 2014-02-20 18:48:38.118 [Thread-46]     major_brand     : isom
  577. DEBUG 2014-02-20 18:48:38.118 [Thread-46]     minor_version   : 1
  578. DEBUG 2014-02-20 18:48:38.118 [Thread-46]     compatible_brands: isom
  579. DEBUG 2014-02-20 18:48:38.119 [Thread-46]     encoder         : Lavf55.13.103
  580. DEBUG 2014-02-20 18:48:38.119 [Thread-46]     Stream #0:0(und): Video: mjpeg, yuvj420p, 320x180 [SAR 405:404 DAR 180:101], q=2-31, 200 kb/s, 90k tbn, 23.98 tbc
  581. DEBUG 2014-02-20 18:48:38.119 [Thread-46]     Metadata:
  582. DEBUG 2014-02-20 18:48:38.119 [Thread-46]       creation_time   : 2011-09-08 11:43:25
  583. DEBUG 2014-02-20 18:48:38.119 [Thread-46] Stream mapping:
  584. DEBUG 2014-02-20 18:48:38.119 [Thread-46]   Stream #0:0 -> #0:0 (h264 -> mjpeg)
  585. DEBUG 2014-02-20 18:48:38.119 [Thread-46] Press [q] to stop, [?] for help
  586. DEBUG 2014-02-20 18:48:38.181 [Thread-46] frame=    1 fps=0.0 q=0.0 Lsize=N/A time=00:00:00.04 bitrate=N/A    
  587. DEBUG 2014-02-20 18:48:38.181 [Thread-46]
  588. DEBUG 2014-02-20 18:48:38.181 [Thread-46] video:4kB audio:0kB subtitle:0 global headers:0kB muxing overhead -100.478573%
  589. DEBUG 2014-02-20 18:48:38.301 [Buffered IO End Checker] Stopping process: ffmpeg.exe-3
  590. INFO  2014-02-20 18:48:38.301 [Buffered IO End Checker] Destroying buffer
  591. DEBUG 2014-02-20 18:48:38.600 [Buffered IO End Checker] Stopping process: ffmpeg.exe-4
  592. INFO  2014-02-20 18:48:38.600 [Buffered IO End Checker] Destroying buffer
  593. DEBUG 2014-02-20 18:48:38.810 [Buffered IO End Checker] Stopping process: ffmpeg.exe-5
  594. INFO  2014-02-20 18:48:38.810 [Buffered IO End Checker] Destroying buffer
  595. DEBUG 2014-02-20 18:48:39.098 [New I/O server worker #1-8] Starting "C:\Program Files (x86)\PS3 Media Server\win32\ffmpeg.exe" -ss 2 -i C:\Users\Arnie\Desktop\Burning\revenge.302.hdtv-lol.mp4 -an -an -s 320x180 -vframes 1 -f image2 pipe:
  596. INFO  2014-02-20 18:48:39.101 [New I/O server worker #1-8] Successfully initialized buffer to 1,048,576 bytes.
  597. DEBUG 2014-02-20 18:48:39.104 [New I/O server worker #1-8] Attaching thread: ffmpeg.exe-10
  598. DEBUG 2014-02-20 18:48:39.141 [Thread-50] ffmpeg version N-55607-g2c1a215 Copyright (c) 2000-2013 the FFmpeg developers
  599. DEBUG 2014-02-20 18:48:39.142 [Thread-50]   built on Aug 16 2013 20:10:34 with gcc 4.7.3 (GCC)
  600. DEBUG 2014-02-20 18:48:39.142 [Thread-50]   configuration: --enable-gpl --enable-version3 --disable-w32threads --enable-avisynth --enable-bzlib --enable-fontconfig --enable-frei0r --enable-gnutls --enable-iconv --enable-libass --enable-libbluray --enable-libcaca --enable-libfreetype --enable-libgsm --enable-libilbc --enable-libmodplug --enable-libmp3lame --enable-libopencore-amrnb --enable-libopencore-amrwb --enable-libopenjpeg --enable-libopus --enable-librtmp --enable-libschroedinger --enable-libsoxr --enable-libspeex --enable-libtheora --enable-libtwolame --enable-libvo-aacenc --enable-libvo-amrwbenc --enable-libvorbis --enable-libvpx --enable-libx264 --enable-libxavs --enable-libxvid --enable-zlib
  601. DEBUG 2014-02-20 18:48:39.142 [Thread-50]   libavutil      52. 42.100 / 52. 42.100
  602. DEBUG 2014-02-20 18:48:39.142 [Thread-50]   libavcodec     55. 28.100 / 55. 28.100
  603. DEBUG 2014-02-20 18:48:39.142 [Thread-50]   libavformat    55. 13.103 / 55. 13.103
  604. DEBUG 2014-02-20 18:48:39.142 [Thread-50]   libavdevice    55.  3.100 / 55.  3.100
  605. DEBUG 2014-02-20 18:48:39.142 [Thread-50]   libavfilter     3. 82.100 /  3. 82.100
  606. DEBUG 2014-02-20 18:48:39.142 [Thread-50]   libswscale      2.  5.100 /  2.  5.100
  607. DEBUG 2014-02-20 18:48:39.142 [Thread-50]   libswresample   0. 17.103 /  0. 17.103
  608. DEBUG 2014-02-20 18:48:39.142 [Thread-50]   libpostproc    52.  3.100 / 52.  3.100
  609. DEBUG 2014-02-20 18:48:39.155 [Thread-50] Input #0, mov,mp4,m4a,3gp,3g2,mj2, from 'C:\Users\Arnie\Desktop\Burning\revenge.302.hdtv-lol.mp4':
  610. DEBUG 2014-02-20 18:48:39.155 [Thread-50]   Metadata:
  611. DEBUG 2014-02-20 18:48:39.155 [Thread-50]     major_brand     : isom
  612. DEBUG 2014-02-20 18:48:39.155 [Thread-50]     minor_version   : 1
  613. DEBUG 2014-02-20 18:48:39.155 [Thread-50]     compatible_brands: isom
  614. DEBUG 2014-02-20 18:48:39.155 [Thread-50]     creation_time   : 2013-10-05 14:10:51
  615. DEBUG 2014-02-20 18:48:39.155 [Thread-50]   Duration: 00:43:30.54, start: 0.000000, bitrate: 773 kb/s
  616. DEBUG 2014-02-20 18:48:39.155 [Thread-50]     Stream #0:0(und): Video: h264 (High) (avc1 / 0x31637661), yuv420p, 720x404, 650 kb/s, 23.98 fps, 23.98 tbr, 24k tbn, 47.95 tbc
  617. DEBUG 2014-02-20 18:48:39.155 [Thread-50]     Metadata:
  618. DEBUG 2014-02-20 18:48:39.156 [Thread-50]       creation_time   : 2013-10-06 12:22:20
  619. DEBUG 2014-02-20 18:48:39.156 [Thread-50]       handler_name    : GPAC ISO Video Handler
  620. DEBUG 2014-02-20 18:48:39.156 [Thread-50]     Stream #0:1(und): Audio: aac (mp4a / 0x6134706D), 48000 Hz, stereo, fltp, 118 kb/s
  621. DEBUG 2014-02-20 18:48:39.156 [Thread-50]     Metadata:
  622. DEBUG 2014-02-20 18:48:39.156 [Thread-50]       creation_time   : 2013-10-05 14:10:55
  623. DEBUG 2014-02-20 18:48:39.156 [Thread-50]       handler_name    : GPAC ISO Audio Handler
  624. DEBUG 2014-02-20 18:48:39.159 [Thread-50] [swscaler @ 04f98020] deprecated pixel format used, make sure you did set range correctly
  625. DEBUG 2014-02-20 18:48:39.161 [Thread-50] Output #0, image2, to 'pipe:':
  626. DEBUG 2014-02-20 18:48:39.162 [Thread-50]   Metadata:
  627. DEBUG 2014-02-20 18:48:39.162 [Thread-50]     major_brand     : isom
  628. DEBUG 2014-02-20 18:48:39.162 [Thread-50]     minor_version   : 1
  629. DEBUG 2014-02-20 18:48:39.162 [Thread-50]     compatible_brands: isom
  630. DEBUG 2014-02-20 18:48:39.162 [Thread-50]     encoder         : Lavf55.13.103
  631. DEBUG 2014-02-20 18:48:39.162 [Thread-50]     Stream #0:0(und): Video: mjpeg, yuvj420p, 320x180, q=2-31, 200 kb/s, 90k tbn, 23.98 tbc
  632. DEBUG 2014-02-20 18:48:39.162 [Thread-50]     Metadata:
  633. DEBUG 2014-02-20 18:48:39.162 [Thread-50]       creation_time   : 2013-10-06 12:22:20
  634. DEBUG 2014-02-20 18:48:39.162 [Thread-50]       handler_name    : GPAC ISO Video Handler
  635. DEBUG 2014-02-20 18:48:39.162 [Thread-50] Stream mapping:
  636. DEBUG 2014-02-20 18:48:39.162 [Thread-50]   Stream #0:0 -> #0:0 (h264 -> mjpeg)
  637. DEBUG 2014-02-20 18:48:39.162 [Thread-50] Press [q] to stop, [?] for help
  638. DEBUG 2014-02-20 18:48:39.193 [Thread-50] frame=    1 fps=0.0 q=0.0 Lsize=N/A time=00:00:00.04 bitrate=N/A    
  639. DEBUG 2014-02-20 18:48:39.193 [Thread-50]
  640. DEBUG 2014-02-20 18:48:39.193 [Thread-50] video:5kB audio:0kB subtitle:0 global headers:0kB muxing overhead -100.409455%
  641. DEBUG 2014-02-20 18:48:39.334 [Buffered IO End Checker] Stopping process: ffmpeg.exe-6
  642. INFO  2014-02-20 18:48:39.334 [Buffered IO End Checker] Destroying buffer
  643. DEBUG 2014-02-20 18:48:39.443 [New I/O server worker #1-1] Starting "C:\Program Files (x86)\PS3 Media Server\win32\ffmpeg.exe" -ss 2 -i C:\Users\Arnie\Desktop\Burning\true.detective.s01e05.hdtv.x264-killers.mp4 -an -an -s 320x180 -vframes 1 -f image2 pipe:
  644. INFO  2014-02-20 18:48:39.447 [New I/O server worker #1-1] Successfully initialized buffer to 1,048,576 bytes.
  645. DEBUG 2014-02-20 18:48:39.449 [New I/O server worker #1-1] Attaching thread: ffmpeg.exe-11
  646. DEBUG 2014-02-20 18:48:39.492 [Thread-54] ffmpeg version N-55607-g2c1a215 Copyright (c) 2000-2013 the FFmpeg developers
  647. DEBUG 2014-02-20 18:48:39.492 [Thread-54]   built on Aug 16 2013 20:10:34 with gcc 4.7.3 (GCC)
  648. DEBUG 2014-02-20 18:48:39.492 [Thread-54]   configuration: --enable-gpl --enable-version3 --disable-w32threads --enable-avisynth --enable-bzlib --enable-fontconfig --enable-frei0r --enable-gnutls --enable-iconv --enable-libass --enable-libbluray --enable-libcaca --enable-libfreetype --enable-libgsm --enable-libilbc --enable-libmodplug --enable-libmp3lame --enable-libopencore-amrnb --enable-libopencore-amrwb --enable-libopenjpeg --enable-libopus --enable-librtmp --enable-libschroedinger --enable-libsoxr --enable-libspeex --enable-libtheora --enable-libtwolame --enable-libvo-aacenc --enable-libvo-amrwbenc --enable-libvorbis --enable-libvpx --enable-libx264 --enable-libxavs --enable-libxvid --enable-zlib
  649. DEBUG 2014-02-20 18:48:39.492 [Thread-54]   libavutil      52. 42.100 / 52. 42.100
  650. DEBUG 2014-02-20 18:48:39.493 [Thread-54]   libavcodec     55. 28.100 / 55. 28.100
  651. DEBUG 2014-02-20 18:48:39.493 [Thread-54]   libavformat    55. 13.103 / 55. 13.103
  652. DEBUG 2014-02-20 18:48:39.493 [Thread-54]   libavdevice    55.  3.100 / 55.  3.100
  653. DEBUG 2014-02-20 18:48:39.493 [Thread-54]   libavfilter     3. 82.100 /  3. 82.100
  654. DEBUG 2014-02-20 18:48:39.493 [Thread-54]   libswscale      2.  5.100 /  2.  5.100
  655. DEBUG 2014-02-20 18:48:39.493 [Thread-54]   libswresample   0. 17.103 /  0. 17.103
  656. DEBUG 2014-02-20 18:48:39.493 [Thread-54]   libpostproc    52.  3.100 / 52.  3.100
  657. DEBUG 2014-02-20 18:48:39.508 [Thread-54] Input #0, mov,mp4,m4a,3gp,3g2,mj2, from 'C:\Users\Arnie\Desktop\Burning\true.detective.s01e05.hdtv.x264-killers.mp4':
  658. DEBUG 2014-02-20 18:48:39.508 [Thread-54]   Metadata:
  659. DEBUG 2014-02-20 18:48:39.508 [Thread-54]     major_brand     : isom
  660. DEBUG 2014-02-20 18:48:39.508 [Thread-54]     minor_version   : 1
  661. DEBUG 2014-02-20 18:48:39.508 [Thread-54]     compatible_brands: isom
  662. DEBUG 2014-02-20 18:48:39.508 [Thread-54]     creation_time   : 2014-02-17 03:04:57
  663. DEBUG 2014-02-20 18:48:39.508 [Thread-54]   Duration: 00:58:25.77, start: 0.000000, bitrate: 1065 kb/s
  664. DEBUG 2014-02-20 18:48:39.508 [Thread-54]     Stream #0:0(und): Audio: aac (mp4a / 0x6134706D), 48000 Hz, stereo, fltp, 106 kb/s
  665. DEBUG 2014-02-20 18:48:39.508 [Thread-54]     Metadata:
  666. DEBUG 2014-02-20 18:48:39.508 [Thread-54]       creation_time   : 2014-02-17 03:04:57
  667. DEBUG 2014-02-20 18:48:39.508 [Thread-54]       handler_name    : GPAC ISO Audio Handler
  668. DEBUG 2014-02-20 18:48:39.509 [Thread-54]     Stream #0:1(und): Video: h264 (High) (avc1 / 0x31637661), yuv420p, 720x404, 954 kb/s, 23.98 fps, 23.98 tbr, 24k tbn, 47.95 tbc
  669. DEBUG 2014-02-20 18:48:39.509 [Thread-54]     Metadata:
  670. DEBUG 2014-02-20 18:48:39.509 [Thread-54]       creation_time   : 2014-02-17 02:16:12
  671. DEBUG 2014-02-20 18:48:39.509 [Thread-54]       handler_name    : L-SMASH Video Media Handler
  672. DEBUG 2014-02-20 18:48:39.512 [Thread-54] [swscaler @ 025a0fe0] deprecated pixel format used, make sure you did set range correctly
  673. DEBUG 2014-02-20 18:48:39.515 [Thread-54] Output #0, image2, to 'pipe:':
  674. DEBUG 2014-02-20 18:48:39.515 [Thread-54]   Metadata:
  675. DEBUG 2014-02-20 18:48:39.515 [Thread-54]     major_brand     : isom
  676. DEBUG 2014-02-20 18:48:39.515 [Thread-54]     minor_version   : 1
  677. DEBUG 2014-02-20 18:48:39.515 [Thread-54]     compatible_brands: isom
  678. DEBUG 2014-02-20 18:48:39.515 [Thread-54]     encoder         : Lavf55.13.103
  679. DEBUG 2014-02-20 18:48:39.515 [Thread-54]     Stream #0:0(und): Video: mjpeg, yuvj420p, 320x180, q=2-31, 200 kb/s, 90k tbn, 23.98 tbc
  680. DEBUG 2014-02-20 18:48:39.515 [Thread-54]     Metadata:
  681. DEBUG 2014-02-20 18:48:39.515 [Thread-54]       creation_time   : 2014-02-17 02:16:12
  682. DEBUG 2014-02-20 18:48:39.515 [Thread-54]       handler_name    : L-SMASH Video Media Handler
  683. DEBUG 2014-02-20 18:48:39.515 [Thread-54] Stream mapping:
  684. DEBUG 2014-02-20 18:48:39.515 [Thread-54]   Stream #0:1 -> #0:0 (h264 -> mjpeg)
  685. DEBUG 2014-02-20 18:48:39.515 [Thread-54] Press [q] to stop, [?] for help
  686. DEBUG 2014-02-20 18:48:39.544 [Thread-54] frame=    1 fps=0.0 q=0.0 Lsize=N/A time=00:00:00.04 bitrate=N/A    
  687. DEBUG 2014-02-20 18:48:39.544 [Thread-54]
  688. DEBUG 2014-02-20 18:48:39.544 [Thread-54] video:4kB audio:0kB subtitle:0 global headers:0kB muxing overhead -100.492501%
  689. DEBUG 2014-02-20 18:48:39.936 [Buffered IO End Checker] Stopping process: ffmpeg.exe-7
  690. INFO  2014-02-20 18:48:39.936 [Buffered IO End Checker] Destroying buffer
  691. DEBUG 2014-02-20 18:48:40.335 [Buffered IO End Checker] Stopping process: ffmpeg.exe-8
  692. INFO  2014-02-20 18:48:40.335 [Buffered IO End Checker] Destroying buffer
  693. INFO  2014-02-20 18:48:40.433 [StartPlaying Event] Started sending C:\Users\Arnie\Desktop\Burning\girls.s03e07.hdtv.x264-killers.mp4 to PlayStation 3 on 10.0.0.4
  694. DEBUG 2014-02-20 18:48:40.686 [Buffered IO End Checker] Stopping process: ffmpeg.exe-9
  695. INFO  2014-02-20 18:48:40.686 [Buffered IO End Checker] Destroying buffer
  696. DEBUG 2014-02-20 18:48:41.701 [Buffered IO End Checker] Stopping process: ffmpeg.exe-10
  697. INFO  2014-02-20 18:48:41.701 [Buffered IO End Checker] Destroying buffer
  698. DEBUG 2014-02-20 18:48:42.053 [Buffered IO End Checker] Stopping process: ffmpeg.exe-11
  699. INFO  2014-02-20 18:48:42.053 [Buffered IO End Checker] Destroying buffer
  700. INFO  2014-02-20 18:48:44.496 [pool-7-thread-1] Renderer WMP found on this address: Bubbas-PC (10.0.0.3)
  701. DEBUG 2014-02-20 18:48:44.498 [pool-7-thread-1] Starting ping -n 3 -l 64000 10.0.0.3
  702. DEBUG 2014-02-20 18:48:44.530 [Thread-59]
  703. DEBUG 2014-02-20 18:48:44.531 [Thread-59] Pinging 10.0.0.3 with 64000 bytes of data:
  704. DEBUG 2014-02-20 18:48:46.498 [SpeedStats Failsafe] Stopping process: ping-12
  705. INFO  2014-02-20 18:50:17.122 [StopPlaying Event] Stopped sending C:\Users\Arnie\Desktop\Burning\girls.s03e07.hdtv.x264-killers.mp4 to PlayStation 3 on 10.0.0.4
  706. INFO  2014-02-20 18:50:40.110 [StartPlaying Event] Started sending C:\Users\Arnie\Desktop\Burning\girls.s03e07.hdtv.x264-killers.mp4 to PlayStation 3 on 10.0.0.4
  707. DEBUG 2014-02-20 18:51:25.908 [UPNP-AliveMessageSender] Sending ALIVE...
  708. DEBUG 2014-02-20 18:54:26.067 [UPNP-AliveMessageSender] Sending ALIVE...
  709. INFO  2014-02-20 18:55:28.809 [StopPlaying Event] Stopped sending C:\Users\Arnie\Desktop\Burning\girls.s03e07.hdtv.x264-killers.mp4 to PlayStation 3 on 10.0.0.4
  710. DEBUG 2014-02-20 18:57:26.229 [UPNP-AliveMessageSender] Sending ALIVE...
  711. INFO  2014-02-20 18:58:42.470 [New I/O server worker #1-8] Another renderer like WMP was found!
  712. DEBUG 2014-02-20 18:58:42.471 [New I/O server worker #1-8] HTTP User-Agent: Microsoft-Windows/6.1 UPnP/1.0 Windows-Media-Player-DMS/12.0.7601.17514 DLNADOC/1.50
  713. INFO  2014-02-20 18:58:42.473 [pool-7-thread-2] Checking IP: 10.0.0.8 for WMP
  714. INFO  2014-02-20 18:58:56.830 [pool-7-thread-2] Renderer WMP found on this address: 10.0.0.8
  715. DEBUG 2014-02-20 18:58:56.831 [pool-7-thread-2] Starting ping -n 3 -l 64000 10.0.0.8
  716. DEBUG 2014-02-20 18:58:56.868 [Thread-62]
  717. DEBUG 2014-02-20 18:58:56.868 [Thread-62] Pinging 10.0.0.8 with 64000 bytes of data:
  718. DEBUG 2014-02-20 18:58:56.868 [Thread-62] Reply from 10.0.0.8: bytes=64000 time<1ms TTL=128
  719. DEBUG 2014-02-20 18:58:57.868 [Thread-62] Reply from 10.0.0.8: bytes=64000 time<1ms TTL=128
  720. DEBUG 2014-02-20 18:58:58.833 [SpeedStats Failsafe] Stopping process: ping-13
  721. DEBUG 2014-02-20 18:58:58.836 [pool-7-thread-2] Could not parse time from "64000 time<1"
  722. DEBUG 2014-02-20 18:58:58.836 [pool-7-thread-2] Could not parse time from "64000 time<1"
  723. DEBUG 2014-02-20 19:00:26.402 [UPNP-AliveMessageSender] Sending ALIVE...
  724. DEBUG 2014-02-20 19:03:26.565 [UPNP-AliveMessageSender] Sending ALIVE...
  725. INFO  2014-02-20 19:04:02.143 [StartPlaying Event] Started sending C:\Users\Arnie\Desktop\Burning\girls.s03e07.hdtv.x264-killers.mp4 to PlayStation 3 on 10.0.0.4
  726. DEBUG 2014-02-20 19:06:26.717 [UPNP-AliveMessageSender] Sending ALIVE...
  727. INFO  2014-02-20 19:07:01.263 [StopPlaying Event] Stopped sending C:\Users\Arnie\Desktop\Burning\girls.s03e07.hdtv.x264-killers.mp4 to PlayStation 3 on 10.0.0.4
  728. INFO  2014-02-20 19:07:20.585 [StartPlaying Event] Started sending C:\Users\Arnie\Desktop\Burning\girls.s03e07.hdtv.x264-killers.mp4 to PlayStation 3 on 10.0.0.4
  729. DEBUG 2014-02-20 19:09:26.876 [UPNP-AliveMessageSender] Sending ALIVE...
  730. INFO  2014-02-20 19:12:02.584 [StopPlaying Event] Stopped sending C:\Users\Arnie\Desktop\Burning\girls.s03e07.hdtv.x264-killers.mp4 to PlayStation 3 on 10.0.0.4
  731. DEBUG 2014-02-20 19:12:27.030 [UPNP-AliveMessageSender] Sending ALIVE...
  732. INFO  2014-02-20 19:13:12.778 [AWT-EventQueue-0] Configuration saved to: C:\ProgramData\PMS\PMS.conf
  733. DEBUG 2014-02-20 19:15:27.151 [UPNP-AliveMessageSender] Sending ALIVE...
  734. DEBUG 2014-02-20 19:18:27.331 [UPNP-AliveMessageSender] Sending ALIVE...
  735. DEBUG 2014-02-20 19:21:27.491 [UPNP-AliveMessageSender] Sending ALIVE...
  736. DEBUG 2014-02-20 19:24:27.661 [UPNP-AliveMessageSender] Sending ALIVE...
clone this paste RAW Paste Data