Pastebin launched a little side project called HostCabi.net, check it out ;-)Pastebin is 300% more awesome when you are logged in. Sign Up, it's FREE!
Guest

Untitled

By: a guest on Oct 11th, 2010  |  syntax: None  |  size: 12.51 KB  |  hits: 47  |  expires: Never
download  |  raw  |  embed  |  report abuse  |  print
Text below is selected. Please press Ctrl+C to copy to your clipboard. (⌘+C on Mac)
  1. General
  2. Count                            : 269
  3. Count of stream of this kind     : 1
  4. Kind of stream                   : General
  5. Kind of stream                   : General
  6. Stream identifier                : 0
  7. Inform                           : MPEG-4 (QuickTime): 53.9 MiB, 2mn 7s
  8. Count of video streams           : 2
  9. Count of audio streams           : 1
  10. Video_Format_List                : AVC / SRT
  11. Video_Format_WithHint_List       : AVC / SRT
  12. Codecs Video                     : AVC / SRT
  13. Video_Language_List              : French / English
  14. Audio_Format_List                : DTS
  15. Audio_Format_WithHint_List       : DTS
  16. Audio codecs                     : DTS
  17. Audio_Language_List              : French
  18. Complete name                    : /Users/gb/Desktop/22 Bullets.mkv
  19. Folder name                      : /Users/gb/Desktop
  20. File name                        : 22 Bullets
  21. File extension                   : mkv
  22. Format                           : MPEG-4
  23. Format                           : MPEG-4
  24. Format/Extensions usually used   : mp4 m4v m4a m4p 3gpp 3gp 3gpp2 3g2 k3g jpm jpx mqv ismv isma f4v
  25. Format_Commercial                : MPEG-4
  26. Format profile                   : QuickTime
  27. InternetMediaType                : video/mp4
  28. Codec ID                         : qt  
  29. Codec ID/Url                     : http://www.apple.com/quicktime/download/standalone.html
  30. Codec                            : MPEG-4
  31. Codec                            : MPEG-4
  32. Codec/Extensions usually used    : mp4 m4v m4a m4p 3gpp 3gp 3gpp2 3g2 k3g jpm jpx mqv ismv isma f4v
  33. File size                        : 56519806
  34. File size                        : 53.9 MiB
  35. File size                        : 54 MiB
  36. File size                        : 54 MiB
  37. File size                        : 53.9 MiB
  38. File size                        : 53.90 MiB
  39. Duration                         : 127280
  40. Duration                         : 2mn 7s
  41. Duration                         : 2mn 7s 280ms
  42. Duration                         : 2mn 7s
  43. Duration                         : 00:02:07.280
  44. Overall bit rate                 : 3552470
  45. Overall bit rate                 : 3 552 Kbps
  46. Stream size                      : 76954
  47. Stream size                      : 75.2 KiB (0%)
  48. Stream size                      : 75 KiB
  49. Stream size                      : 75 KiB
  50. Stream size                      : 75.2 KiB
  51. Stream size                      : 75.15 KiB
  52. Stream size                      : 75.2 KiB (0%)
  53. Proportion of this stream        : 0.00136
  54. Encoded date                     : UTC 2010-10-11 13:02:25
  55. Tagged date                      : UTC 2010-10-11 13:02:29
  56. File last modification date      : UTC 2010-10-11 13:02:29
  57. File last modification date (loc : 2010-10-11 09:02:29
  58. Writing library                  : Apple QuickTime 7.6.6
  59. Writing library                  : Apple QuickTime 7.6.6
  60. Writing library/Name             : Apple QuickTime
  61. Writing library/Version          : 7.6.6
  62. com.apple.quicktime.software     : mkvmerge v3.3.0 ('Language') built on Mar 24 2010 14:59:24
  63. com.apple.quicktime.player.movie : (Binary)
  64.  
  65. Video #1
  66. Count                            : 182
  67. Count of stream of this kind     : 2
  68. Kind of stream                   : Video
  69. Kind of stream                   : Video
  70. Stream identifier                : 0
  71. Stream identifier                : 1
  72. Inform                           : French, 3 173 Kbps (6 511 Kbps), 1280*544 (2.35:1), at 24.000 fps, AVC (High@L4.1) (CABAC / 5 Ref Frames)
  73. ID                               : 1
  74. ID                               : 1
  75. Format                           : AVC
  76. Format/Info                      : Advanced Video Codec
  77. Format/Url                       : http://developers.videolan.org/x264.html
  78. Format_Commercial                : AVC
  79. Format profile                   : High@L4.1
  80. Format settings                  : CABAC / 5 Ref Frames
  81. Format settings, CABAC           : Yes
  82. Format settings, CABAC           : Yes
  83. Format settings, ReFrames        : 5
  84. Format settings, ReFrames        : 5 frames
  85. InternetMediaType                : video/H264
  86. Codec ID                         : avc1
  87. Codec ID/Info                    : Advanced Video Coding
  88. Codec ID/Url                     : http://www.apple.com/quicktime/download/standalone.html
  89. Codec                            : AVC
  90. Codec                            : AVC
  91. Codec/Family                     : AVC
  92. Codec/Info                       : Advanced Video Codec
  93. Codec/Url                        : http://developers.videolan.org/x264.html
  94. Codec/CC                         : avc1
  95. Codec profile                    : High@L4.1
  96. Codec settings                   : CABAC / 5 Ref Frames
  97. Codec settings, CABAC            : Yes
  98. Codec_Settings_RefFrames         : 5
  99. Duration                         : 96458
  100. Duration                         : 1mn 36s
  101. Duration                         : 1mn 36s 458ms
  102. Duration                         : 1mn 36s
  103. Duration                         : 00:01:36.458
  104. Bit rate mode                    : VBR
  105. Bit rate mode                    : Variable
  106. Bit rate                         : 3173216
  107. Bit rate                         : 3 173 Kbps
  108. Nominal bit rate                 : 6511000
  109. Nominal bit rate                 : 6 511 Kbps
  110. Width                            : 1280
  111. Width                            : 1 280 pixels
  112. Height                           : 544
  113. Height                           : 544 pixels
  114. Pixel aspect ratio               : 1.000
  115. Display aspect ratio             : 2.353
  116. Display aspect ratio             : 2.35:1
  117. Rotation                         : 0.000
  118. Frame rate mode                  : VFR
  119. Frame rate mode                  : Variable
  120. Frame rate                       : 24.000
  121. Frame rate                       : 24.000 fps
  122. Minimum frame rate               : 23.810
  123. Minimum frame rate               : 23.810 fps
  124. Maximum frame rate               : 24.390
  125. Maximum frame rate               : 24.390 fps
  126. Frame count                      : 2315
  127. Resolution                       : 8
  128. Resolution                       : 8 bits
  129. Colorimetry                      : 4:2:0
  130. Color space                      : YUV
  131. Chroma subsampling               : 4:2:0
  132. Bit depth                        : 8
  133. Bit depth                        : 8 bits
  134. Scan type                        : Progressive
  135. Scan type                        : Progressive
  136. Interlacement                    : PPF
  137. Interlacement                    : Progressive
  138. Bits/(Pixel*Frame)               : 0.190
  139. Stream size                      : 38260394
  140. Stream size                      : 36.5 MiB (68%)
  141. Stream size                      : 36 MiB
  142. Stream size                      : 36 MiB
  143. Stream size                      : 36.5 MiB
  144. Stream size                      : 36.49 MiB
  145. Stream size                      : 36.5 MiB (68%)
  146. Proportion of this stream        : 0.67694
  147. Writing library                  : x264 - core 104 r1713 c276662
  148. Writing library                  : x264 core 104 r1713 c276662
  149. Writing library/Name             : x264
  150. Writing library/Version          : core 104 r1713 c276662
  151. Encoding settings                : cabac=1 / ref=5 / deblock=1:-1:-1 / analyse=0x3:0x113 / me=umh / subme=7 / psy=1 / psy_rd=1.00:0.00 / mixed_ref=1 / me_range=16 / chroma_me=1 / trellis=1 / 8x8dct=1 / cqm=0 / deadzone=21,11 / fast_pskip=1 / chroma_qp_offset=-2 / threads=12 / sliced_threads=0 / nr=0 / decimate=1 / interlaced=0 / constrained_intra=0 / bframes=3 / b_pyramid=2 / b_adapt=2 / b_bias=0 / direct=3 / weightb=1 / open_gop=0 / weightp=2 / keyint=250 / keyint_min=24 / scenecut=40 / intra_refresh=0 / rc_lookahead=40 / rc=2pass / mbtree=1 / bitrate=6511 / ratetol=1.0 / qcomp=0.60 / qpmin=10 / qpmax=51 / qpstep=4 / cplxblur=20.0 / qblur=0.5 / vbv_maxrate=50000 / vbv_bufsize=50000 / ip_ratio=1.40 / aq=1:1.00 / nal_hrd=none
  152. Language                         : fr
  153. Language                         : French
  154. Language                         : French
  155. Language                         : fr
  156. Language                         : fra
  157. Language                         : fr
  158. Encoded date                     : UTC 2010-10-11 12:43:11
  159. Tagged date                      : UTC 2010-10-11 13:02:29
  160.  
  161. Video #2
  162. Count                            : 182
  163. Count of stream of this kind     : 2
  164. Kind of stream                   : Video
  165. Kind of stream                   : Video
  166. Stream identifier                : 1
  167. Stream identifier                : 2
  168. ID                               : 3
  169. ID                               : 3
  170. Format                           : SRT
  171. Format_Commercial                : SRT
  172. Codec ID                         : SRT
  173. Codec                            : SRT
  174. Codec                            : SRT
  175. Codec/CC                         : SRT
  176. Duration                         : 127280
  177. Duration                         : 2mn 7s
  178. Duration                         : 2mn 7s 280ms
  179. Duration                         : 2mn 7s
  180. Duration                         : 00:02:07.280
  181. Bit rate mode                    : VBR
  182. Bit rate mode                    : Variable
  183. Bit rate                         : 1
  184. Bit rate                         : 1 bps
  185. Width                            : 1280
  186. Width                            : 1 280 pixels
  187. Height                           : 544
  188. Height                           : 544 pixels
  189. Pixel aspect ratio               : 1.000
  190. Display aspect ratio             : 2.353
  191. Display aspect ratio             : 2.35:1
  192. Rotation                         : 0.000
  193. Frame rate mode                  : VFR
  194. Frame rate mode                  : Variable
  195. Frame rate                       : 0.024
  196. Frame rate                       : 0.024 fps
  197. Minimum frame rate               : 0.008
  198. Minimum frame rate               : 0.008 fps
  199. Maximum frame rate               : 0.321
  200. Maximum frame rate               : 0.321 fps
  201. Frame count                      : 3
  202. Bits/(Pixel*Frame)               : 0.000
  203. Stream size                      : 14
  204. Stream size                      : 14.0 Bytes (0%)
  205. Stream size                      : 14 Bytes
  206. Stream size                      : 14 Bytes
  207. Stream size                      : 14.0 Bytes
  208. Stream size                      : 14.00 Bytes
  209. Stream size                      : 14.0 Bytes (0%)
  210. Proportion of this stream        : 0.00000
  211. Language                         : en
  212. Language                         : English
  213. Language                         : English
  214. Language                         : en
  215. Language                         : eng
  216. Language                         : en
  217. Encoded date                     : UTC 2010-10-11 12:43:11
  218. Tagged date                      : UTC 2010-10-11 13:02:29
  219.  
  220. Audio
  221. Count                            : 149
  222. Count of stream of this kind     : 1
  223. Kind of stream                   : Audio
  224. Kind of stream                   : Audio
  225. Stream identifier                : 0
  226. Inform                           : French, 1 509 Kbps, 1 Hz, 16 bits, 3 channels, DTS
  227. ID                               : 2
  228. ID                               : 2
  229. Format                           : DTS
  230. Format_Commercial                : DTS
  231. Codec ID                         : DTS
  232. Codec                            : DTS
  233. Codec                            : DTS
  234. Codec/CC                         : DTS
  235. Duration                         : 96395
  236. Duration                         : 1mn 36s
  237. Duration                         : 1mn 36s 395ms
  238. Duration                         : 1mn 36s
  239. Duration                         : 00:01:36.395
  240. Bit rate mode                    : CBR
  241. Bit rate mode                    : Constant
  242. Bit rate                         : 1508995
  243. Bit rate                         : 1 509 Kbps
  244. Channel(s)                       : 3
  245. Channel(s)                       : 3 channels
  246. Sampling rate                    : 1
  247. Sampling rate                    : 1 Hz
  248. SamplingCount                    : 96
  249. Resolution                       : 16
  250. Resolution                       : 16 bits
  251. Bit depth                        : 16
  252. Bit depth                        : 16 bits
  253. Stream size                      : 18182444
  254. Stream size                      : 17.3 MiB (32%)
  255. Stream size                      : 17 MiB
  256. Stream size                      : 17 MiB
  257. Stream size                      : 17.3 MiB
  258. Stream size                      : 17.34 MiB
  259. Stream size                      : 17.3 MiB (32%)
  260. Proportion of this stream        : 0.32170
  261. Language                         : fr
  262. Language                         : French
  263. Language                         : French
  264. Language                         : fr
  265. Language                         : fra
  266. Language                         : fr
  267. Encoded date                     : UTC 2010-10-11 12:43:11
  268. Tagged date                      : UTC 2010-10-11 13:02:29