This week only. Pastebin PRO Accounts Christmas Special! Don't miss out!Want more features on Pastebin? Sign Up, it's FREE!
Guest

Untitled

By: a guest on Feb 4th, 2011  |  syntax: Bash  |  size: 2.13 KB  |  views: 339  |  expires: Never
download  |  raw  |  embed  |  report abuse  |  print
Text below is selected. Please press Ctrl+C to copy to your clipboard. (⌘+C on Mac)
  1. FFmpeg version SVN-r26402, Copyright (c) 2000-2011 the FFmpeg developers
  2.   built on Jan 28 2011 19:41:40 with gcc 4.4.3
  3.   configuration: --enable-gpl --enable-version3 --enable-nonfree --enable-postproc --enable-libfaac --enable-libopencore-amrnb --enable-libopencore-amrwb --enable-libtheora --enable-libvorbis --enable-libx264 --enable-libxvid --enable-x11grab --enable-libmp3lame
  4.   libavutil     50.36. 0 / 50.36. 0
  5.   libavcore      0.16. 1 /  0.16. 1
  6.   libavcodec    52.108. 0 / 52.108. 0
  7.   libavformat   52.93. 0 / 52.93. 0
  8.   libavdevice   52. 2. 3 / 52. 2. 3
  9.   libavfilter    1.74. 0 /  1.74. 0
  10.   libswscale     0.12. 0 /  0.12. 0
  11.   libpostproc   51. 2. 0 / 51. 2. 0
  12. Input #0, mov,mp4,m4a,3gp,3g2,mj2, from '../video-convert/Beverly-Hills-Chihuahua-2-trailer-1080p-HDTN.mp4':
  13.   Metadata:
  14.     major_brand     : isom
  15.     minor_version   : 1
  16.     compatible_brands: isom
  17.     creation_time   : 2010-10-22 09:09:12
  18.     encoder         : Yamb 2.1.0.0 [http://yamb.unite-video.com]
  19.   Duration: 00:02:05.54, start: 0.000000, bitrate: 10157 kb/s
  20.     Stream #0.0(und): Video: h264, yuv420p, 1920x1080 [PAR 1:1 DAR 16:9], 9898 kb/s, 23.98 fps, 23.98 tbr, 2500k tbn, 47.95 tbc
  21.     Metadata:
  22.       creation_time   : 2010-10-22 08:20:03
  23.     Stream #0.1(und): Audio: aac, 48000 Hz, 5.1, s16, 256 kb/s
  24.     Metadata:
  25.       creation_time   : 2010-10-22 09:09:14
  26. [buffer @ 0x18360f0] w:1920 h:1080 pixfmt:yuv420p
  27. Output #0, flv, to '../video-convert/converted/beverly.flv':
  28.   Metadata:
  29.     major_brand     : isom
  30.     minor_version   : 1
  31.     compatible_brands: isom
  32.     creation_time   : 2010-10-22 09:09:12
  33.     encoder         : Lavf52.93.0
  34.     Stream #0.0(und): Video: flv, yuv420p, 1920x1080 [PAR 1:1 DAR 16:9], q=2-31, 200 kb/s, 1k tbn, 23.98 tbc
  35.     Metadata:
  36.       creation_time   : 2010-10-22 08:20:03
  37.     Stream #0.1(und): Audio: libmp3lame, 44100 Hz, 2 channels, s16, 64 kb/s
  38.     Metadata:
  39.       creation_time   : 2010-10-22 09:09:14
  40. Stream mapping:
  41.   Stream #0.0 -> #0.0
  42.   Stream #0.1 -> #0.1
  43. Press [q] to stop encoding
  44. Resampling with input channels greater than 2 unsupported.
  45. Can not resample 6 channels @ 48000 Hz to 2 channels @ 44100 Hz
clone this paste RAW Paste Data