Pastebin launched a little side project called VERYVIRAL.com, check it out ;-) Want more features on Pastebin? Sign Up, it's FREE!
Guest

ps3pms-debug.log

By: a guest on Jul 31st, 2013  |  syntax: None  |  size: 58.03 KB  |  views: 52  |  expires: Never
download  |  raw  |  embed  |  report abuse  |  print
Text below is selected. Please press Ctrl+C to copy to your clipboard. (⌘+C on Mac)
  1. INFO  2013-07-31 22:23:44.888 [main] Starting PS3 Media Server 1.90.0-SNAPSHOT
  2. INFO  2013-07-31 22:23:44.890 [main] by shagrath / 2008-2013
  3. INFO  2013-07-31 22:23:44.891 [main] http://ps3mediaserver.org
  4. INFO  2013-07-31 22:23:44.891 [main] https://github.com/ps3mediaserver/ps3mediaserver
  5. INFO  2013-07-31 22:23:44.891 [main]
  6. INFO  2013-07-31 22:23:44.891 [main] Build: f7a2b05e6 (2013-07-31)
  7. INFO  2013-07-31 22:23:44.891 [main] Java: Java HotSpot(TM) 64-Bit Server VM 1.6.0_51 by Apple Inc.
  8. INFO  2013-07-31 22:23:44.892 [main] OS: Mac OS X x86_64 10.8.4
  9. INFO  2013-07-31 22:23:44.892 [main] Encoding: UTF-8
  10. INFO  2013-07-31 22:23:44.906 [main] Memory: 763 MB
  11. INFO  2013-07-31 22:23:44.906 [main]
  12. INFO  2013-07-31 22:23:44.906 [main] Working directory: /Applications/PS3 Media Server.app/Contents/Resources/Java
  13. INFO  2013-07-31 22:23:44.913 [main] Temp directory: /var/folders/9n/3m_8tx653615y71yndwrs0h00000gn/T/ps3mediaserver
  14. INFO  2013-07-31 22:23:44.914 [main] Logging config file: /Applications/PS3 Media Server.app/Contents/Resources/Java/logback.xml
  15. INFO  2013-07-31 22:23:44.915 [main] debug.log: /Users/chinhui/Library/Application Support/PMS/debug.log
  16. INFO  2013-07-31 22:23:44.916 [main]
  17. INFO  2013-07-31 22:23:44.916 [main] Profile directory: /Users/chinhui/Library/Application Support/PMS
  18. INFO  2013-07-31 22:23:44.917 [main] Profile directory permissions: rw
  19. INFO  2013-07-31 22:23:44.917 [main] Profile path: /Users/chinhui/Library/Application Support/PMS/PMS.conf
  20. INFO  2013-07-31 22:23:44.918 [main] Profile permissions: rw
  21. INFO  2013-07-31 22:23:44.920 [main] Profile name: Chinys-MBP.local
  22. INFO  2013-07-31 22:23:44.920 [main]
  23. INFO  2013-07-31 22:23:44.921 [main] Web conf path: /Users/chinhui/Library/Application Support/PMS/WEB.conf
  24. INFO  2013-07-31 22:23:44.921 [main] Web conf permissions: file not found
  25. INFO  2013-07-31 22:23:44.923 [main]
  26. DEBUG 2013-07-31 22:23:45.880 [main] Reading maximum_bitrate: default: "110", current: "0"
  27. DEBUG 2013-07-31 22:23:45.890 [main] Reading prevents_sleep_mode: default: false, current: true
  28. DEBUG 2013-07-31 22:23:45.912 [main] Reading hide_transcode_folder: default: false, current: true
  29. DEBUG 2013-07-31 22:23:45.940 [main] Reading folders: default: "", current: "/Users/chinhui/Movies"
  30. INFO  2013-07-31 22:23:45.942 [main] Checking shared folder: /Users/chinhui/Movies
  31. INFO  2013-07-31 22:23:46.663 [main] Loading MediaInfo library
  32. INFO  2013-07-31 22:23:46.743 [main] Loaded MediaInfoLib - v0.7.61
  33. INFO  2013-07-31 22:23:46.750 [main] Loading renderer configurations from /Applications/PS3 Media Server.app/Contents/Resources/Java/renderers
  34. INFO  2013-07-31 22:23:46.751 [main] Loading configuration file: AirPlayer.conf
  35. INFO  2013-07-31 22:23:46.756 [main] Loading configuration file: Android.conf
  36. INFO  2013-07-31 22:23:46.769 [main] Loading configuration file: Bravia4500.conf
  37. INFO  2013-07-31 22:23:46.773 [main] Loading configuration file: Bravia5500.conf
  38. INFO  2013-07-31 22:23:46.779 [main] Loading configuration file: BraviaEX.conf
  39. INFO  2013-07-31 22:23:46.786 [main] Loading configuration file: BraviaHX.conf
  40. INFO  2013-07-31 22:23:46.793 [main] Loading configuration file: DLinkDSM510.conf
  41. INFO  2013-07-31 22:23:46.806 [main] Loading configuration file: DirecTVHR.conf
  42. INFO  2013-07-31 22:23:46.811 [main] Loading configuration file: FreeboxHD.conf
  43. INFO  2013-07-31 22:23:46.815 [main] Loading configuration file: FreecomMusicPal.conf
  44. INFO  2013-07-31 22:23:46.818 [main] Loading configuration file: Kuro.conf
  45. INFO  2013-07-31 22:23:46.829 [main] Loading configuration file: LGST600.conf
  46. INFO  2013-07-31 22:23:46.839 [main] Loading configuration file: N900.conf
  47. INFO  2013-07-31 22:23:46.842 [main] Loading configuration file: OPPOBDP83.conf
  48. INFO  2013-07-31 22:23:46.862 [main] Loading configuration file: OPPOBDP93.conf
  49. INFO  2013-07-31 22:23:46.866 [main] Loading configuration file: PS3.conf
  50. INFO  2013-07-31 22:23:46.888 [main] Loading configuration file: Panasonic.conf
  51. INFO  2013-07-31 22:23:46.899 [main] Loading configuration file: Philips.conf
  52. INFO  2013-07-31 22:23:46.902 [main] Loading configuration file: PhilipsPFL.conf
  53. INFO  2013-07-31 22:23:46.934 [main] Loading configuration file: PopcornHour.conf
  54. INFO  2013-07-31 22:23:46.936 [main] Loading configuration file: Realtek.conf
  55. INFO  2013-07-31 22:23:46.945 [main] Loading configuration file: SMP-N100.conf
  56. INFO  2013-07-31 22:23:46.956 [main] Loading configuration file: Samsung-SMT-G7400.conf
  57. INFO  2013-07-31 22:23:46.969 [main] Loading configuration file: SamsungAllShare.conf
  58. INFO  2013-07-31 22:23:46.977 [main] Loading configuration file: SamsungWiseLink.conf
  59. INFO  2013-07-31 22:23:46.979 [main] Loading configuration file: Showtime3.conf
  60. INFO  2013-07-31 22:23:46.984 [main] Loading configuration file: SonyBluray.conf
  61. INFO  2013-07-31 22:23:46.990 [main] Loading configuration file: Streamium.conf
  62. INFO  2013-07-31 22:23:46.991 [main] Loading configuration file: WDTVLive.conf
  63. INFO  2013-07-31 22:23:46.995 [main] Loading configuration file: WMP.conf
  64. INFO  2013-07-31 22:23:46.999 [main] Loading configuration file: XBMC.conf
  65. INFO  2013-07-31 22:23:47.001 [main] Loading configuration file: XBOX360.conf
  66. INFO  2013-07-31 22:23:47.003 [main] Loading configuration file: YamahaRXA1010.conf
  67. INFO  2013-07-31 22:23:47.005 [main] Loading configuration file: YamahaRXV671.conf
  68. INFO  2013-07-31 22:23:47.009 [main] Loading configuration file: iPad-iPhone.conf
  69. INFO  2013-07-31 22:23:47.063 [main] Checking MPlayer font cache. It can take a minute or so.
  70. DEBUG 2013-07-31 22:23:47.064 [main] launching: osx/mplayer
  71. INFO  2013-07-31 22:23:47.158 [main] Done!
  72. INFO  2013-07-31 22:23:47.165 [main] Searching for plugins in /Applications/PS3 Media Server.app/Contents/Resources/Java/plugins
  73. INFO  2013-07-31 22:23:47.166 [main] No plugins found
  74. DEBUG 2013-07-31 22:23:47.212 [main] FFmpeg supported protocols: [applehttp, cache, concat, crypto, data, file, gopher, hls, http, httpproxy, mmsh, mmst, pipe, rtp, tcp, udp, rtmp, rtmpe, rtmps, rtmpt, rtmpte, mms]
  75. INFO  2013-07-31 22:23:47.215 [main] Registering transcoding engine: FFmpeg Audio
  76. INFO  2013-07-31 22:23:47.219 [main] Registering transcoding engine: MEncoder Video
  77. INFO  2013-07-31 22:23:47.219 [main] Registering transcoding engine: FFmpeg
  78. INFO  2013-07-31 22:23:47.221 [main] Registering transcoding engine: VLC Video
  79. INFO  2013-07-31 22:23:47.222 [main] Registering transcoding engine: FFmpeg Web Video
  80. INFO  2013-07-31 22:23:47.223 [main] Registering transcoding engine: FFmpeg Web Audio
  81. INFO  2013-07-31 22:23:47.223 [main] Registering transcoding engine: MEncoder Web Video
  82. INFO  2013-07-31 22:23:47.224 [main] Registering transcoding engine: VLC Web Video
  83. INFO  2013-07-31 22:23:47.225 [main] Registering transcoding engine: tsMuxeR
  84. INFO  2013-07-31 22:23:47.225 [main] Registering transcoding engine: Audio High Fidelity
  85. INFO  2013-07-31 22:23:47.226 [main] Registering transcoding engine: VLC Web Audio (Legacy)
  86. INFO  2013-07-31 22:23:47.226 [main] Registering transcoding engine: VLC Web Video (Legacy)
  87. INFO  2013-07-31 22:23:47.227 [main] Registering transcoding engine: dcraw Thumbnailer
  88. DEBUG 2013-07-31 22:23:47.228 [main] Reading engines: default: "mencoder,avsmencoder,tsmuxer,ffmpegvideo,vlctranscoder,ffmpegaudio,tsmuxeraudio,ffmpegwebvideo,vlcwebvideo,vlcvideo,mencoderwebvideo,ffmpegwebaudio,vlcaudio,ffmpegdvrmsremux,rawthumbs", current: "mencoder,vlctranscoder,ffmpegvideo,tsmuxer,ffmpegaudio,mplayeraudio,tsmuxeraudio,ffmpegwebvideo,vlcwebvideo,vlcvideo,mencoderwebvideo,mplayervideodump,mplayerwebaudio,vlcaudio,rawthumbs"
  89. INFO  2013-07-31 22:23:47.340 [main] Using address /192.168.1.8 found on network interface: name:en1 (en1)
  90. INFO  2013-07-31 22:23:47.341 [main] Created socket: /192.168.1.8:5001
  91. DEBUG 2013-07-31 22:23:47.506 [main] Sending ALIVE...
  92. DEBUG 2013-07-31 22:23:47.516 [main] Reading uuid: default: null, current: "2c4bac8e-4981-4089-81c0-2cfa2040fc56"
  93. INFO  2013-07-31 22:23:47.516 [main] Using the following UUID configured in PMS.conf: 2c4bac8e-4981-4089-81c0-2cfa2040fc56
  94. INFO  2013-07-31 22:23:47.656 [New I/O server worker #1-2] No IP filter specified, access granted to /192.168.1.6
  95. INFO  2013-07-31 22:23:47.669 [pool-4-thread-1] Checking IP: 192.168.1.6 for Samsung AllShare
  96. DEBUG 2013-07-31 22:23:47.763 [New I/O server worker #1-1] HTTP User-Agent: SEC_HHP_[TV]UA32ES6200/1.0 DLNADOC/1.50
  97. INFO  2013-07-31 22:23:47.784 [main] The server should now appear on your renderer
  98. INFO  2013-07-31 22:23:47.872 [pool-4-thread-1] Renderer Samsung AllShare found on this address: 192.168.1.6
  99. DEBUG 2013-07-31 22:23:47.879 [pool-4-thread-1] Starting ping -c 3 -s 64000 192.168.1.6
  100. DEBUG 2013-07-31 22:23:47.905 [pool-4-thread-1] Unix process ID (ping): 3376
  101. DEBUG 2013-07-31 22:23:47.906 [Thread-8] ping: sendto: Message too long
  102. DEBUG 2013-07-31 22:23:48.908 [Thread-8] ping: sendto: Message too long
  103. INFO  2013-07-31 22:23:49.471 [New I/O server worker #1-3] No IP filter specified, access granted to /192.168.1.3
  104. INFO  2013-07-31 22:23:49.477 [pool-4-thread-2] Checking IP: 192.168.1.3 for Playstation 3
  105. DEBUG 2013-07-31 22:23:49.498 [New I/O server worker #1-3] HTTP User-Agent: UPnP/1.0
  106. INFO  2013-07-31 22:23:49.581 [pool-4-thread-2] Renderer Playstation 3 found on this address: 192.168.1.3
  107. DEBUG 2013-07-31 22:23:49.585 [pool-4-thread-2] Starting ping -c 3 -s 64000 192.168.1.3
  108. DEBUG 2013-07-31 22:23:49.622 [Thread-12] ping: sendto: Message too long
  109. DEBUG 2013-07-31 22:23:49.623 [pool-4-thread-2] Unix process ID (ping): 3377
  110. DEBUG 2013-07-31 22:23:49.880 [SpeedStats Failsafe] Stopping Unix process 3376: ping-0
  111. DEBUG 2013-07-31 22:23:50.621 [Thread-12] ping: sendto: Message too long
  112. DEBUG 2013-07-31 22:23:51.586 [SpeedStats Failsafe] Stopping Unix process 3377: ping-1
  113. INFO  2013-07-31 22:23:52.239 [New I/O server worker #1-4] Checking shared folder: /Users/chinhui/Movies
  114. DEBUG 2013-07-31 22:23:57.783 [UPNP-AliveMessageSender] Sending ALIVE...
  115. DEBUG 2013-07-31 22:24:00.544 [New I/O server worker #1-1] Starting "/Applications/PS3 Media Server.app/Contents/Resources/Java/osx/ffmpeg" -ss 2 -i "/Users/chinhui/Movies/21 Jump Street.avi" -an -an -s 320x180 -vframes 1 -f image2 pipe:
  116. INFO  2013-07-31 22:24:00.594 [New I/O server worker #1-1] Successfully initialized buffer to 1,048,576 bytes.
  117. DEBUG 2013-07-31 22:24:00.612 [Thread-15] ffmpeg version 1.1.2 (PMS3) for PS3 Media Server Copyright (c) 2000-2013 the FFmpeg developers
  118. DEBUG 2013-07-31 22:24:00.613 [Thread-15]   built on Feb 10 2013 14:02:18 with llvm-gcc 4.2.1 (LLVM build 2336.11.00)
  119. DEBUG 2013-07-31 22:24:00.613 [Thread-15]   configuration: http://git.io/ZHdseg
  120. DEBUG 2013-07-31 22:24:00.618 [New I/O server worker #1-1] Attaching thread: ffmpeg-2
  121. DEBUG 2013-07-31 22:24:00.625 [New I/O server worker #1-1] Unix process ID (/Applications/PS3 Media Server.app/Contents/Resources/Java/osx/ffmpeg): 3378
  122. DEBUG 2013-07-31 22:24:00.702 [Thread-15] [mpeg4 @ 0x7fbf4282ec00] Invalid and inefficient vfw-avi packed B frames detected
  123. DEBUG 2013-07-31 22:24:00.703 [Thread-15] Input #0, avi, from '/Users/chinhui/Movies/21 Jump Street.avi':
  124. DEBUG 2013-07-31 22:24:00.703 [Thread-15]   Duration: 01:49:37.53, start: 0.000000, bitrate: 891 kb/s
  125. DEBUG 2013-07-31 22:24:00.703 [Thread-15]     Stream #0:0: Video: mpeg4 (Advanced Simple Profile) (XVID / 0x44495658), yuv420p, 640x272 [SAR 1:1 DAR 40:17], 23.98 tbr, 23.98 tbn, 23.98 tbc
  126. DEBUG 2013-07-31 22:24:00.703 [Thread-15]     Stream #0:1: Audio: mp3 (U[0][0][0] / 0x0055), 48000 Hz, stereo, s16p, 128 kb/s
  127. DEBUG 2013-07-31 22:24:00.711 [Thread-15] Output #0, image2, to 'pipe:':
  128. DEBUG 2013-07-31 22:24:00.711 [Thread-15]   Metadata:
  129. DEBUG 2013-07-31 22:24:00.711 [Thread-15]     encoder         : Lavf54.59.106
  130. DEBUG 2013-07-31 22:24:00.711 [Thread-15]     Stream #0:0: Video: mjpeg, yuvj420p, 320x180 [SAR 45:34 DAR 40:17], q=2-31, 200 kb/s, 90k tbn, 23.98 tbc
  131. DEBUG 2013-07-31 22:24:00.711 [Thread-15] Stream mapping:
  132. DEBUG 2013-07-31 22:24:00.712 [Thread-15]   Stream #0:0 -> #0:0 (mpeg4 -> mjpeg)
  133. DEBUG 2013-07-31 22:24:00.712 [Thread-15] Press [q] to stop, [?] for help
  134. DEBUG 2013-07-31 22:24:00.712 [Thread-15] [mpeg4 @ 0x7fbf4282ec00] Invalid and inefficient vfw-avi packed B frames detected
  135. DEBUG 2013-07-31 22:24:00.712 [Thread-15] [mpeg4 @ 0x7fbf43856000] Invalid and inefficient vfw-avi packed B frames detected
  136. DEBUG 2013-07-31 22:24:00.777 [Thread-15] frame=    1 fps=0.0 q=0.0 Lsize=N/A time=00:00:00.04 bitrate=N/A dup=0 drop=45    
  137. DEBUG 2013-07-31 22:24:00.777 [Thread-15] video:2kB audio:0kB subtitle:0 global headers:0kB muxing overhead -101.151832%
  138. DEBUG 2013-07-31 22:24:03.288 [Buffered IO End Checker] Stopping Unix process 3378: ffmpeg-2
  139. INFO  2013-07-31 22:24:03.288 [Buffered IO End Checker] Destroying buffer
  140. DEBUG 2013-07-31 22:24:07.596 [New I/O server worker #1-2] Starting "/Applications/PS3 Media Server.app/Contents/Resources/Java/osx/ffmpeg" -ss 2 -i "/Users/chinhui/Movies/Alone 2007 Thai (Eng-sub).mp4" -an -an -s 320x180 -vframes 1 -f image2 pipe:
  141. INFO  2013-07-31 22:24:07.648 [New I/O server worker #1-2] Successfully initialized buffer to 1,048,576 bytes.
  142. DEBUG 2013-07-31 22:24:07.650 [New I/O server worker #1-2] Attaching thread: ffmpeg-3
  143. DEBUG 2013-07-31 22:24:07.655 [New I/O server worker #1-2] Unix process ID (/Applications/PS3 Media Server.app/Contents/Resources/Java/osx/ffmpeg): 3379
  144. DEBUG 2013-07-31 22:24:07.792 [Thread-19] ffmpeg version 1.1.2 (PMS3) for PS3 Media Server Copyright (c) 2000-2013 the FFmpeg developers
  145. DEBUG 2013-07-31 22:24:07.792 [Thread-19]   built on Feb 10 2013 14:02:18 with llvm-gcc 4.2.1 (LLVM build 2336.11.00)
  146. DEBUG 2013-07-31 22:24:07.792 [Thread-19]   configuration: http://git.io/ZHdseg
  147. DEBUG 2013-07-31 22:24:07.832 [Thread-19] [mov,mp4,m4a,3gp,3g2,mj2 @ 0x7f8860806600] multiple edit list entries, a/v desync might occur, patch welcome
  148. DEBUG 2013-07-31 22:24:07.872 [Thread-19] Input #0, mov,mp4,m4a,3gp,3g2,mj2, from '/Users/chinhui/Movies/Alone 2007 Thai (Eng-sub).mp4':
  149. DEBUG 2013-07-31 22:24:07.873 [Thread-19]   Metadata:
  150. DEBUG 2013-07-31 22:24:07.873 [Thread-19]     major_brand     : mp42
  151. DEBUG 2013-07-31 22:24:07.873 [Thread-19]     minor_version   : 0
  152. DEBUG 2013-07-31 22:24:07.873 [Thread-19]     compatible_brands: mp42isom
  153. DEBUG 2013-07-31 22:24:07.873 [Thread-19]     creation_time   : 2010-08-14 21:56:55
  154. DEBUG 2013-07-31 22:24:07.873 [Thread-19]     encoder         : mp4creator 1.6.1d
  155. DEBUG 2013-07-31 22:24:07.873 [Thread-19]   Duration: 01:29:39.56, start: 0.000000, bitrate: 914 kb/s
  156. DEBUG 2013-07-31 22:24:07.873 [Thread-19]     Stream #0:0(eng): Video: mpeg4 (Advanced Simple Profile) (mp4v / 0x7634706D), yuv420p, 576x352 [SAR 1:1 DAR 18:11], 791 kb/s, 25 fps, 25 tbr, 90k tbn, 25 tbc
  157. DEBUG 2013-07-31 22:24:07.873 [Thread-19]     Metadata:
  158. DEBUG 2013-07-31 22:24:07.873 [Thread-19]       creation_time   : 2010-08-14 21:56:55
  159. DEBUG 2013-07-31 22:24:07.873 [Thread-19]     Stream #0:1(eng): Audio: aac (mp4a / 0x6134706D), 44100 Hz, stereo, fltp, 120 kb/s
  160. DEBUG 2013-07-31 22:24:07.873 [Thread-19]     Metadata:
  161. DEBUG 2013-07-31 22:24:07.873 [Thread-19]       creation_time   : 2010-08-14 21:58:12
  162. DEBUG 2013-07-31 22:24:07.877 [Thread-19] Output #0, image2, to 'pipe:':
  163. DEBUG 2013-07-31 22:24:07.877 [Thread-19]   Metadata:
  164. DEBUG 2013-07-31 22:24:07.877 [Thread-19]     major_brand     : mp42
  165. DEBUG 2013-07-31 22:24:07.877 [Thread-19]     minor_version   : 0
  166. DEBUG 2013-07-31 22:24:07.877 [Thread-19]     compatible_brands: mp42isom
  167. DEBUG 2013-07-31 22:24:07.877 [Thread-19]     encoder         : Lavf54.59.106
  168. DEBUG 2013-07-31 22:24:07.877 [Thread-19]     Stream #0:0(eng): Video: mjpeg, yuvj420p, 320x180 [SAR 81:88 DAR 18:11], q=2-31, 200 kb/s, 90k tbn, 25 tbc
  169. DEBUG 2013-07-31 22:24:07.877 [Thread-19]     Metadata:
  170. DEBUG 2013-07-31 22:24:07.877 [Thread-19]       creation_time   : 2010-08-14 21:56:55
  171. DEBUG 2013-07-31 22:24:07.877 [Thread-19] Stream mapping:
  172. DEBUG 2013-07-31 22:24:07.877 [Thread-19]   Stream #0:0 -> #0:0 (mpeg4 -> mjpeg)
  173. DEBUG 2013-07-31 22:24:07.877 [Thread-19] Press [q] to stop, [?] for help
  174. DEBUG 2013-07-31 22:24:07.939 [Thread-19] frame=    1 fps=0.0 q=0.0 Lsize=N/A time=00:00:00.04 bitrate=N/A dup=0 drop=48    
  175. DEBUG 2013-07-31 22:24:07.939 [Thread-19] video:2kB audio:0kB subtitle:0 global headers:0kB muxing overhead -101.015228%
  176. DEBUG 2013-07-31 22:24:10.449 [New I/O server worker #1-4] Starting "/Applications/PS3 Media Server.app/Contents/Resources/Java/osx/ffmpeg" -ss 2 -i /Users/chinhui/Movies/Battleship.avi -an -an -s 320x180 -vframes 1 -f image2 pipe:
  177. DEBUG 2013-07-31 22:24:10.470 [Buffered IO End Checker] Stopping Unix process 3379: ffmpeg-3
  178. DEBUG 2013-07-31 22:24:10.494 [Thread-23] ffmpeg version 1.1.2 (PMS3) for PS3 Media Server Copyright (c) 2000-2013 the FFmpeg developers
  179. DEBUG 2013-07-31 22:24:10.494 [Thread-23]   built on Feb 10 2013 14:02:18 with llvm-gcc 4.2.1 (LLVM build 2336.11.00)
  180. DEBUG 2013-07-31 22:24:10.495 [Thread-23]   configuration: http://git.io/ZHdseg
  181. DEBUG 2013-07-31 22:24:10.761 [Thread-23] [mpeg4 @ 0x7fcd8082ec00] Invalid and inefficient vfw-avi packed B frames detected
  182. DEBUG 2013-07-31 22:24:10.761 [Thread-23] Input #0, avi, from '/Users/chinhui/Movies/Battleship.avi':
  183. DEBUG 2013-07-31 22:24:10.761 [Thread-23]   Duration: 01:57:45.36, start: 0.000000, bitrate: 1734 kb/s
  184. DEBUG 2013-07-31 22:24:10.761 [Thread-23]     Stream #0:0: Video: mpeg4 (Advanced Simple Profile) (XVID / 0x44495658), yuv420p, 640x272 [SAR 1:1 DAR 40:17], 25 tbr, 25 tbn, 25 tbc
  185. DEBUG 2013-07-31 22:24:10.762 [Thread-23]     Stream #0:1: Audio: mp3 (U[0][0][0] / 0x0055), 44100 Hz, stereo, s16p, 128 kb/s
  186. DEBUG 2013-07-31 22:24:10.767 [Thread-23] Output #0, image2, to 'pipe:':
  187. DEBUG 2013-07-31 22:24:10.767 [Thread-23]   Metadata:
  188. DEBUG 2013-07-31 22:24:10.767 [Thread-23]     encoder         : Lavf54.59.106
  189. DEBUG 2013-07-31 22:24:10.768 [Thread-23]     Stream #0:0: Video: mjpeg, yuvj420p, 320x180 [SAR 45:34 DAR 40:17], q=2-31, 200 kb/s, 90k tbn, 25 tbc
  190. DEBUG 2013-07-31 22:24:10.768 [Thread-23] Stream mapping:
  191. DEBUG 2013-07-31 22:24:10.768 [Thread-23]   Stream #0:0 -> #0:0 (mpeg4 -> mjpeg)
  192. DEBUG 2013-07-31 22:24:10.768 [Thread-23] Press [q] to stop, [?] for help
  193. DEBUG 2013-07-31 22:24:10.812 [Thread-23] [mpeg4 @ 0x7fcd8082ec00] Invalid and inefficient vfw-avi packed B frames detected
  194. DEBUG 2013-07-31 22:24:10.813 [Thread-23] [mpeg4 @ 0x7fcd808bd600] Invalid and inefficient vfw-avi packed B frames detected
  195. INFO  2013-07-31 22:24:10.445 [New I/O server worker #1-1] Starting transcode/remux of 蜡笔小新全集_蜡笔小新全集_094.rm
  196. INFO  2013-07-31 22:24:10.473 [Buffered IO End Checker] Destroying buffer
  197. INFO  2013-07-31 22:24:10.486 [New I/O server worker #1-4] Successfully initialized buffer to 1,048,576 bytes.
  198. DEBUG 2013-07-31 22:24:10.873 [New I/O server worker #1-4] Attaching thread: ffmpeg-4
  199. DEBUG 2013-07-31 22:24:10.874 [New I/O server worker #1-4] Unix process ID (/Applications/PS3 Media Server.app/Contents/Resources/Java/osx/ffmpeg): 3380
  200. DEBUG 2013-07-31 22:24:10.939 [Thread-23] frame=    1 fps=0.0 q=0.0 Lsize=N/A time=00:00:00.04 bitrate=N/A dup=0 drop=44    
  201. DEBUG 2013-07-31 22:24:10.940 [Thread-23] video:3kB audio:0kB subtitle:0 global headers:0kB muxing overhead -100.663050%
  202. DEBUG 2013-07-31 22:24:10.992 [mencoder-5] Starting "/Applications/PS3 Media Server.app/Contents/Resources/Java/osx/mencoder" -ss 0 /Users/chinhui/Movies/QvodPlayer/蜡笔小新全集_蜡笔小新全集_094.rm -msglevel statusline=2 -oac lavc -of mpeg -mpegopts format=mpeg2:muxrate=500000:vbuf_size=1194:abuf_size=64 -ovc lavc -channels 6 -lavdopts debug=0:threads=2 -lavcopts autoaspect=1:vcodec=mpeg2video:acodec=ac3:abitrate=448:threads=2:keyint=25:vqscale=1:vqmin=2:vqmax=3:vrc_maxrate=499000:vrc_buf_size=1835 -nosub -noautosub -ofps 30 -lavdopts fast -mc 0.1 -af lavcresample=48000 -srate 48000 -o - -really-quiet -msglevel statusline=2
  203. INFO  2013-07-31 22:24:11.109 [mencoder-5] Successfully initialized buffer to 50,000,000 bytes.
  204. WARN  2013-07-31 22:24:11.109 [New I/O server worker #1-1] External input stream instance is null... sounds not good, waiting 500ms
  205. DEBUG 2013-07-31 22:24:11.112 [mencoder-5] Attaching thread: mencoder-5
  206. DEBUG 2013-07-31 22:24:11.126 [mencoder-5] Unix process ID (/Applications/PS3 Media Server.app/Contents/Resources/Java/osx/mencoder): 3381
  207. INFO  2013-07-31 22:24:11.614 [StartPlaying Event] Started sending /Users/chinhui/Movies/QvodPlayer/蜡笔小新全集_蜡笔小新全集_094.rm to Playstation 3 on 192.168.1.3
  208. DEBUG 2013-07-31 22:24:13.453 [Buffered IO End Checker] Stopping Unix process 3380: ffmpeg-4
  209. INFO  2013-07-31 22:24:13.453 [Buffered IO End Checker] Destroying buffer
  210. DEBUG 2013-07-31 22:24:14.121 [Buffered IO End Checker] Stopping Unix process 3381: mencoder-5
  211. INFO  2013-07-31 22:24:14.122 [Buffered IO End Checker] Destroying buffer
  212. DEBUG 2013-07-31 22:24:14.153 [Thread-28] Error consuming stream of spawned process: Stream closed
  213. INFO  2013-07-31 22:24:15.642 [StopPlaying Event] Stopped sending /Users/chinhui/Movies/QvodPlayer/蜡笔小新全集_蜡笔小新全集_094.rm to Playstation 3 on 192.168.1.3
  214. INFO  2013-07-31 22:24:16.283 [New I/O server worker #1-4] Starting transcode/remux of 蜡笔小新全集_蜡笔小新全集_094.rm
  215. DEBUG 2013-07-31 22:24:16.297 [New I/O server worker #1-3] Starting "/Applications/PS3 Media Server.app/Contents/Resources/Java/osx/ffmpeg" -ss 2 -i /Users/chinhui/Movies/Contraband.avi -an -an -s 320x180 -vframes 1 -f image2 pipe:
  216. DEBUG 2013-07-31 22:24:16.327 [mencoder-7] Starting "/Applications/PS3 Media Server.app/Contents/Resources/Java/osx/mencoder" -ss 0 /Users/chinhui/Movies/QvodPlayer/蜡笔小新全集_蜡笔小新全集_094.rm -msglevel statusline=2 -oac lavc -of mpeg -mpegopts format=mpeg2:muxrate=500000:vbuf_size=1194:abuf_size=64 -ovc lavc -channels 6 -lavdopts debug=0:threads=2 -lavcopts autoaspect=1:vcodec=mpeg2video:acodec=ac3:abitrate=448:threads=2:keyint=25:vqscale=1:vqmin=2:vqmax=3:vrc_maxrate=499000:vrc_buf_size=1835 -nosub -noautosub -ofps 30 -lavdopts fast -mc 0.1 -af lavcresample=48000 -srate 48000 -o - -really-quiet -msglevel statusline=2
  217. WARN  2013-07-31 22:24:16.560 [New I/O server worker #1-4] External input stream instance is null... sounds not good, waiting 500ms
  218. INFO  2013-07-31 22:24:16.642 [New I/O server worker #1-3] Successfully initialized buffer to 1,048,576 bytes.
  219. DEBUG 2013-07-31 22:24:16.643 [New I/O server worker #1-3] Attaching thread: ffmpeg-6
  220. DEBUG 2013-07-31 22:24:16.644 [New I/O server worker #1-3] Unix process ID (/Applications/PS3 Media Server.app/Contents/Resources/Java/osx/ffmpeg): 3382
  221. INFO  2013-07-31 22:24:16.644 [mencoder-7] Successfully initialized buffer to 50,000,000 bytes.
  222. DEBUG 2013-07-31 22:24:16.645 [mencoder-7] Attaching thread: mencoder-7
  223. DEBUG 2013-07-31 22:24:16.646 [mencoder-7] Unix process ID (/Applications/PS3 Media Server.app/Contents/Resources/Java/osx/mencoder): 3383
  224. DEBUG 2013-07-31 22:24:16.871 [Thread-34] ffmpeg version 1.1.2 (PMS3) for PS3 Media Server Copyright (c) 2000-2013 the FFmpeg developers
  225. DEBUG 2013-07-31 22:24:16.871 [Thread-34]   built on Feb 10 2013 14:02:18 with llvm-gcc 4.2.1 (LLVM build 2336.11.00)
  226. DEBUG 2013-07-31 22:24:16.871 [Thread-34]   configuration: http://git.io/ZHdseg
  227. INFO  2013-07-31 22:24:17.065 [StartPlaying Event] Started sending /Users/chinhui/Movies/QvodPlayer/蜡笔小新全集_蜡笔小新全集_094.rm to Playstation 3 on 192.168.1.3
  228. DEBUG 2013-07-31 22:24:17.650 [Thread-34] [mpeg4 @ 0x7fb36202ec00] Invalid and inefficient vfw-avi packed B frames detected
  229. DEBUG 2013-07-31 22:24:17.650 [Thread-34] Input #0, avi, from '/Users/chinhui/Movies/Contraband.avi':
  230. DEBUG 2013-07-31 22:24:17.650 [Thread-34]   Metadata:
  231. DEBUG 2013-07-31 22:24:17.650 [Thread-34]     copyright       : SaM
  232. DEBUG 2013-07-31 22:24:17.651 [Thread-34]   Duration: 01:49:38.45, start: 0.000000, bitrate: 892 kb/s
  233. DEBUG 2013-07-31 22:24:17.651 [Thread-34]     Stream #0:0: Video: mpeg4 (Advanced Simple Profile) (XVID / 0x44495658), yuv420p, 640x272 [SAR 1:1 DAR 40:17], 23.98 tbr, 23.98 tbn, 23.98 tbc
  234. DEBUG 2013-07-31 22:24:17.651 [Thread-34]     Stream #0:1: Audio: mp3 (U[0][0][0] / 0x0055), 48000 Hz, stereo, s16p, 128 kb/s
  235. DEBUG 2013-07-31 22:24:17.678 [Thread-34] Output #0, image2, to 'pipe:':
  236. DEBUG 2013-07-31 22:24:17.678 [Thread-34]   Metadata:
  237. DEBUG 2013-07-31 22:24:17.680 [Thread-34]     copyright       : SaM
  238. DEBUG 2013-07-31 22:24:17.680 [Thread-34]     encoder         : Lavf54.59.106
  239. DEBUG 2013-07-31 22:24:17.680 [Thread-34]     Stream #0:0: Video: mjpeg, yuvj420p, 320x180 [SAR 45:34 DAR 40:17], q=2-31, 200 kb/s, 90k tbn, 23.98 tbc
  240. DEBUG 2013-07-31 22:24:17.680 [Thread-34] Stream mapping:
  241. DEBUG 2013-07-31 22:24:17.706 [Thread-34]   Stream #0:0 -> #0:0 (mpeg4 -> mjpeg)
  242. DEBUG 2013-07-31 22:24:17.707 [Thread-34] Press [q] to stop, [?] for help
  243. DEBUG 2013-07-31 22:24:17.707 [Thread-34] [mpeg4 @ 0x7fb36202ec00] Invalid and inefficient vfw-avi packed B frames detected
  244. DEBUG 2013-07-31 22:24:17.707 [Thread-34] [mpeg4 @ 0x7fb3620bd600] Invalid and inefficient vfw-avi packed B frames detected
  245. DEBUG 2013-07-31 22:24:17.786 [UPNP-AliveMessageSender] Sending ALIVE...
  246. DEBUG 2013-07-31 22:24:17.885 [Thread-34] frame=    1 fps=0.0 q=0.0 Lsize=N/A time=00:00:00.04 bitrate=N/A dup=0 drop=45    
  247. DEBUG 2013-07-31 22:24:17.885 [Thread-34] video:1kB audio:0kB subtitle:0 global headers:0kB muxing overhead -101.443570%
  248. DEBUG 2013-07-31 22:24:19.338 [New I/O server worker #1-3] Starting "/Applications/PS3 Media Server.app/Contents/Resources/Java/osx/ffmpeg" -ss 2 -i /Users/chinhui/Movies/QvodPlayer/蜡笔小新全集_蜡笔小新全集_094.rm -an -an -s 320x180 -vframes 1 -f image2 pipe:
  249. DEBUG 2013-07-31 22:24:19.404 [Thread-39] ffmpeg version 1.1.2 (PMS3) for PS3 Media Server Copyright (c) 2000-2013 the FFmpeg developers
  250. DEBUG 2013-07-31 22:24:19.404 [Thread-39]   built on Feb 10 2013 14:02:18 with llvm-gcc 4.2.1 (LLVM build 2336.11.00)
  251. DEBUG 2013-07-31 22:24:19.404 [Thread-39]   configuration: http://git.io/ZHdseg
  252. DEBUG 2013-07-31 22:24:19.404 [Thread-39] [rm @ 0x7ff480806600] Invalid stream index 2 for index at pos 10832552
  253. INFO  2013-07-31 22:24:19.405 [New I/O server worker #1-3] Successfully initialized buffer to 1,048,576 bytes.
  254. DEBUG 2013-07-31 22:24:19.407 [New I/O server worker #1-3] Attaching thread: ffmpeg-8
  255. DEBUG 2013-07-31 22:24:19.408 [New I/O server worker #1-3] Unix process ID (/Applications/PS3 Media Server.app/Contents/Resources/Java/osx/ffmpeg): 3385
  256. DEBUG 2013-07-31 22:24:19.421 [Thread-39] Input #0, rm, from '/Users/chinhui/Movies/QvodPlayer/蜡笔小新全集_蜡笔小新全集_094.rm':
  257. DEBUG 2013-07-31 22:24:19.421 [Thread-39]   Metadata:
  258. DEBUG 2013-07-31 22:24:19.421 [Thread-39]     title           : 3-142
  259. DEBUG 2013-07-31 22:24:19.422 [Thread-39]     author          :
  260. DEBUG 2013-07-31 22:24:19.422 [Thread-39]     copyright       : (c)2002 RealMedia
  261. DEBUG 2013-07-31 22:24:19.422 [Thread-39]     comment         :
  262. DEBUG 2013-07-31 22:24:19.422 [Thread-39]     ASMRuleBook     : #($Bandwidth >= 0),Stream0Bandwidth = 96468, Stream1Bandwidth = 103532;
  263. DEBUG 2013-07-31 22:24:19.422 [Thread-39]     Audiences       : BatchRealProducer's Audience;
  264. DEBUG 2013-07-31 22:24:19.422 [Thread-39]     audioMode       : music
  265. DEBUG 2013-07-31 22:24:19.422 [Thread-39]     Creation Date   : 11/7/2003 19:34:13
  266. DEBUG 2013-07-31 22:24:19.422 [Thread-39]     Description     : This RealMedia File Compressed by Batch Real Producer
  267. DEBUG 2013-07-31 22:24:19.422 [Thread-39]     Generated By    : Helix DNA Producer SDK 9.2 for Windows, Build 9.2.0.306
  268. DEBUG 2013-07-31 22:24:19.422 [Thread-39]     Modification Date: 11/7/2003 19:34:13
  269. DEBUG 2013-07-31 22:24:19.422 [Thread-39]     videoMode       : sharp
  270. DEBUG 2013-07-31 22:24:19.422 [Thread-39]   Duration: 00:07:05.47, start: 0.000000, bitrate: 203 kb/s
  271. DEBUG 2013-07-31 22:24:19.423 [Thread-39]     Stream #0:0: Audio: cook (cook / 0x6B6F6F63), 44100 Hz, stereo, fltp, 96 kb/s
  272. DEBUG 2013-07-31 22:24:19.423 [Thread-39]     Stream #0:1: Video: rv40 (RV40 / 0x30345652), yuv420p, 352x288, 101 kb/s, 30 fps, 30 tbr, 1k tbn, 1k tbc
  273. DEBUG 2013-07-31 22:24:19.428 [Thread-39] Output #0, image2, to 'pipe:':
  274. DEBUG 2013-07-31 22:24:19.429 [Thread-39]   Metadata:
  275. DEBUG 2013-07-31 22:24:19.430 [Thread-39]     title           : 3-142
  276. DEBUG 2013-07-31 22:24:19.430 [Thread-39]     author          :
  277. DEBUG 2013-07-31 22:24:19.430 [Thread-39]     copyright       : (c)2002 RealMedia
  278. DEBUG 2013-07-31 22:24:19.430 [Thread-39]     comment         :
  279. DEBUG 2013-07-31 22:24:19.431 [Thread-39]     ASMRuleBook     : #($Bandwidth >= 0),Stream0Bandwidth = 96468, Stream1Bandwidth = 103532;
  280. DEBUG 2013-07-31 22:24:19.431 [Thread-39]     Audiences       : BatchRealProducer's Audience;
  281. DEBUG 2013-07-31 22:24:19.431 [Thread-39]     audioMode       : music
  282. DEBUG 2013-07-31 22:24:19.431 [Thread-39]     Creation Date   : 11/7/2003 19:34:13
  283. DEBUG 2013-07-31 22:24:19.431 [Thread-39]     Description     : This RealMedia File Compressed by Batch Real Producer
  284. DEBUG 2013-07-31 22:24:19.431 [Thread-39]     Generated By    : Helix DNA Producer SDK 9.2 for Windows, Build 9.2.0.306
  285. DEBUG 2013-07-31 22:24:19.431 [Thread-39]     Modification Date: 11/7/2003 19:34:13
  286. DEBUG 2013-07-31 22:24:19.431 [Thread-39]     videoMode       : sharp
  287. DEBUG 2013-07-31 22:24:19.431 [Thread-39]     encoder         : Lavf54.59.106
  288. DEBUG 2013-07-31 22:24:19.431 [Thread-39]     Stream #0:0: Video: mjpeg, yuvj420p, 320x180, q=2-31, 200 kb/s, 90k tbn, 30 tbc
  289. DEBUG 2013-07-31 22:24:19.431 [Thread-39] Stream mapping:
  290. DEBUG 2013-07-31 22:24:19.431 [Thread-39]   Stream #0:1 -> #0:0 (rv40 -> mjpeg)
  291. DEBUG 2013-07-31 22:24:19.431 [Thread-39] Press [q] to stop, [?] for help
  292. DEBUG 2013-07-31 22:24:19.536 [Thread-39] frame=    1 fps=0.0 q=0.0 Lsize=N/A time=00:00:00.03 bitrate=N/A dup=0 drop=37    
  293. DEBUG 2013-07-31 22:24:19.536 [Thread-39] video:8kB audio:0kB subtitle:0 global headers:0kB muxing overhead -100.253515%
  294. DEBUG 2013-07-31 22:24:19.906 [New I/O server worker #1-1] Starting "/Applications/PS3 Media Server.app/Contents/Resources/Java/osx/ffmpeg" -ss 2 -i /Users/chinhui/Movies/QvodPlayer/蜡笔小新第64集[diaoqin.com].rm -an -an -s 320x180 -vframes 1 -f image2 pipe:
  295. DEBUG 2013-07-31 22:24:19.967 [Thread-43] ffmpeg version 1.1.2 (PMS3) for PS3 Media Server Copyright (c) 2000-2013 the FFmpeg developers
  296. DEBUG 2013-07-31 22:24:19.968 [Thread-43]   built on Feb 10 2013 14:02:18 with llvm-gcc 4.2.1 (LLVM build 2336.11.00)
  297. DEBUG 2013-07-31 22:24:19.968 [Thread-43]   configuration: http://git.io/ZHdseg
  298. INFO  2013-07-31 22:24:19.971 [New I/O server worker #1-1] Successfully initialized buffer to 1,048,576 bytes.
  299. DEBUG 2013-07-31 22:24:19.975 [Thread-43] [rm @ 0x7f8bc8806600] Invalid stream index 2 for index at pos 10809501
  300. DEBUG 2013-07-31 22:24:19.979 [New I/O server worker #1-1] Attaching thread: ffmpeg-9
  301. DEBUG 2013-07-31 22:24:19.989 [Thread-43] Input #0, rm, from '/Users/chinhui/Movies/QvodPlayer/蜡笔小新第64集[diaoqin.com].rm':
  302. DEBUG 2013-07-31 22:24:19.989 [Thread-43]   Metadata:
  303. DEBUG 2013-07-31 22:24:19.989 [Thread-43]     title           : 2-104
  304. DEBUG 2013-07-31 22:24:19.989 [Thread-43]     author          :
  305. DEBUG 2013-07-31 22:24:19.989 [Thread-43]     copyright       : (c)2002 RealMedia
  306. DEBUG 2013-07-31 22:24:19.989 [Thread-43]     comment         :
  307. DEBUG 2013-07-31 22:24:19.990 [Thread-43]     ASMRuleBook     : #($Bandwidth >= 0),Stream0Bandwidth = 96468, Stream1Bandwidth = 103532;
  308. DEBUG 2013-07-31 22:24:19.990 [Thread-43]     Audiences       : BatchRealProducer's Audience;
  309. DEBUG 2013-07-31 22:24:19.991 [New I/O server worker #1-1] Unix process ID (/Applications/PS3 Media Server.app/Contents/Resources/Java/osx/ffmpeg): 3386
  310. DEBUG 2013-07-31 22:24:19.992 [Thread-43]     audioMode       : music
  311. DEBUG 2013-07-31 22:24:19.993 [Thread-43]     Creation Date   : 11/7/2003 21:39:21
  312. DEBUG 2013-07-31 22:24:19.993 [Thread-43]     Description     : This RealMedia File Compressed by Batch Real Producer
  313. DEBUG 2013-07-31 22:24:19.993 [Thread-43]     Generated By    : Helix DNA Producer SDK 9.2 for Windows, Build 9.2.0.306
  314. DEBUG 2013-07-31 22:24:19.993 [Thread-43]     Modification Date: 11/7/2003 21:39:21
  315. DEBUG 2013-07-31 22:24:19.993 [Thread-43]     videoMode       : sharp
  316. DEBUG 2013-07-31 22:24:19.993 [Thread-43]   Duration: 00:07:05.47, start: 0.000000, bitrate: 203 kb/s
  317. DEBUG 2013-07-31 22:24:19.993 [Thread-43]     Stream #0:0: Audio: cook (cook / 0x6B6F6F63), 44100 Hz, stereo, fltp, 96 kb/s
  318. DEBUG 2013-07-31 22:24:19.993 [Thread-43]     Stream #0:1: Video: rv40 (RV40 / 0x30345652), yuv420p, 352x288, 101 kb/s, 30 fps, 30 tbr, 1k tbn, 1k tbc
  319. DEBUG 2013-07-31 22:24:19.997 [Thread-43] Output #0, image2, to 'pipe:':
  320. DEBUG 2013-07-31 22:24:19.997 [Thread-43]   Metadata:
  321. DEBUG 2013-07-31 22:24:19.997 [Thread-43]     title           : 2-104
  322. DEBUG 2013-07-31 22:24:19.997 [Thread-43]     author          :
  323. DEBUG 2013-07-31 22:24:19.997 [Thread-43]     copyright       : (c)2002 RealMedia
  324. DEBUG 2013-07-31 22:24:19.997 [Thread-43]     comment         :
  325. DEBUG 2013-07-31 22:24:19.998 [Thread-43]     ASMRuleBook     : #($Bandwidth >= 0),Stream0Bandwidth = 96468, Stream1Bandwidth = 103532;
  326. DEBUG 2013-07-31 22:24:19.998 [Thread-43]     Audiences       : BatchRealProducer's Audience;
  327. DEBUG 2013-07-31 22:24:19.998 [Thread-43]     audioMode       : music
  328. DEBUG 2013-07-31 22:24:19.998 [Thread-43]     Creation Date   : 11/7/2003 21:39:21
  329. DEBUG 2013-07-31 22:24:19.998 [Thread-43]     Description     : This RealMedia File Compressed by Batch Real Producer
  330. DEBUG 2013-07-31 22:24:19.998 [Thread-43]     Generated By    : Helix DNA Producer SDK 9.2 for Windows, Build 9.2.0.306
  331. DEBUG 2013-07-31 22:24:19.998 [Thread-43]     Modification Date: 11/7/2003 21:39:21
  332. DEBUG 2013-07-31 22:24:19.998 [Thread-43]     videoMode       : sharp
  333. DEBUG 2013-07-31 22:24:19.998 [Thread-43]     encoder         : Lavf54.59.106
  334. DEBUG 2013-07-31 22:24:19.998 [Thread-43]     Stream #0:0: Video: mjpeg, yuvj420p, 320x180, q=2-31, 200 kb/s, 90k tbn, 30 tbc
  335. DEBUG 2013-07-31 22:24:19.998 [Thread-43] Stream mapping:
  336. DEBUG 2013-07-31 22:24:19.998 [Thread-43]   Stream #0:1 -> #0:0 (rv40 -> mjpeg)
  337. DEBUG 2013-07-31 22:24:19.999 [Thread-43] Press [q] to stop, [?] for help
  338. DEBUG 2013-07-31 22:24:20.088 [Thread-43] frame=    1 fps=0.0 q=0.0 Lsize=N/A time=00:00:00.03 bitrate=N/A dup=0 drop=39    
  339. DEBUG 2013-07-31 22:24:20.088 [Thread-43] video:9kB audio:0kB subtitle:0 global headers:0kB muxing overhead -100.250569%
  340. DEBUG 2013-07-31 22:24:20.406 [New I/O server worker #1-2] Starting "/Applications/PS3 Media Server.app/Contents/Resources/Java/osx/ffmpeg" -ss 2 -i /Users/chinhui/Movies/QvodPlayer/蜡笔小新第65集[diaoqin.com].rm -an -an -s 320x180 -vframes 1 -f image2 pipe:
  341. DEBUG 2013-07-31 22:24:20.421 [Buffered IO End Checker] Stopping Unix process 3382: ffmpeg-6
  342. INFO  2013-07-31 22:24:20.425 [Buffered IO End Checker] Destroying buffer
  343. INFO  2013-07-31 22:24:20.452 [New I/O server worker #1-2] Successfully initialized buffer to 1,048,576 bytes.
  344. DEBUG 2013-07-31 22:24:20.463 [Thread-47] ffmpeg version 1.1.2 (PMS3) for PS3 Media Server Copyright (c) 2000-2013 the FFmpeg developers
  345. DEBUG 2013-07-31 22:24:20.464 [Thread-47]   built on Feb 10 2013 14:02:18 with llvm-gcc 4.2.1 (LLVM build 2336.11.00)
  346. DEBUG 2013-07-31 22:24:20.464 [Thread-47]   configuration: http://git.io/ZHdseg
  347. DEBUG 2013-07-31 22:24:20.466 [New I/O server worker #1-2] Attaching thread: ffmpeg-10
  348. DEBUG 2013-07-31 22:24:20.467 [Thread-47] [rm @ 0x7fa001806600] Invalid stream index 2 for index at pos 10659296
  349. DEBUG 2013-07-31 22:24:20.477 [New I/O server worker #1-2] Unix process ID (/Applications/PS3 Media Server.app/Contents/Resources/Java/osx/ffmpeg): 3387
  350. DEBUG 2013-07-31 22:24:20.493 [Thread-47] Input #0, rm, from '/Users/chinhui/Movies/QvodPlayer/蜡笔小新第65集[diaoqin.com].rm':
  351. DEBUG 2013-07-31 22:24:20.494 [Thread-47]   Metadata:
  352. DEBUG 2013-07-31 22:24:20.494 [Thread-47]     title           : 2-105
  353. DEBUG 2013-07-31 22:24:20.494 [Thread-47]     author          :
  354. DEBUG 2013-07-31 22:24:20.494 [Thread-47]     copyright       : (c)2002 RealMedia
  355. DEBUG 2013-07-31 22:24:20.494 [Thread-47]     comment         :
  356. DEBUG 2013-07-31 22:24:20.494 [Thread-47]     ASMRuleBook     : #($Bandwidth >= 0),Stream0Bandwidth = 96468, Stream1Bandwidth = 103532;
  357. DEBUG 2013-07-31 22:24:20.494 [Thread-47]     Audiences       : BatchRealProducer's Audience;
  358. DEBUG 2013-07-31 22:24:20.494 [Thread-47]     audioMode       : music
  359. DEBUG 2013-07-31 22:24:20.495 [Thread-47]     Creation Date   : 11/7/2003 21:41:42
  360. DEBUG 2013-07-31 22:24:20.495 [Thread-47]     Description     : This RealMedia File Compressed by Batch Real Producer
  361. DEBUG 2013-07-31 22:24:20.495 [Thread-47]     Generated By    : Helix DNA Producer SDK 9.2 for Windows, Build 9.2.0.306
  362. DEBUG 2013-07-31 22:24:20.495 [Thread-47]     Modification Date: 11/7/2003 21:41:42
  363. DEBUG 2013-07-31 22:24:20.495 [Thread-47]     videoMode       : sharp
  364. DEBUG 2013-07-31 22:24:20.495 [Thread-47]   Duration: 00:06:58.04, start: 0.000000, bitrate: 203 kb/s
  365. DEBUG 2013-07-31 22:24:20.496 [Thread-47]     Stream #0:0: Audio: cook (cook / 0x6B6F6F63), 44100 Hz, stereo, fltp, 96 kb/s
  366. DEBUG 2013-07-31 22:24:20.496 [Thread-47]     Stream #0:1: Video: rv40 (RV40 / 0x30345652), yuv420p, 352x288, 102 kb/s, 30 fps, 30 tbr, 1k tbn, 1k tbc
  367. DEBUG 2013-07-31 22:24:20.512 [Thread-47] Output #0, image2, to 'pipe:':
  368. DEBUG 2013-07-31 22:24:20.512 [Thread-47]   Metadata:
  369. DEBUG 2013-07-31 22:24:20.512 [Thread-47]     title           : 2-105
  370. DEBUG 2013-07-31 22:24:20.512 [Thread-47]     author          :
  371. DEBUG 2013-07-31 22:24:20.512 [Thread-47]     copyright       : (c)2002 RealMedia
  372. DEBUG 2013-07-31 22:24:20.512 [Thread-47]     comment         :
  373. DEBUG 2013-07-31 22:24:20.513 [Thread-47]     ASMRuleBook     : #($Bandwidth >= 0),Stream0Bandwidth = 96468, Stream1Bandwidth = 103532;
  374. DEBUG 2013-07-31 22:24:20.513 [Thread-47]     Audiences       : BatchRealProducer's Audience;
  375. DEBUG 2013-07-31 22:24:20.516 [Thread-47]     audioMode       : music
  376. DEBUG 2013-07-31 22:24:20.516 [Thread-47]     Creation Date   : 11/7/2003 21:41:42
  377. DEBUG 2013-07-31 22:24:20.516 [Thread-47]     Description     : This RealMedia File Compressed by Batch Real Producer
  378. DEBUG 2013-07-31 22:24:20.516 [Thread-47]     Generated By    : Helix DNA Producer SDK 9.2 for Windows, Build 9.2.0.306
  379. DEBUG 2013-07-31 22:24:20.516 [Thread-47]     Modification Date: 11/7/2003 21:41:42
  380. DEBUG 2013-07-31 22:24:20.516 [Thread-47]     videoMode       : sharp
  381. DEBUG 2013-07-31 22:24:20.516 [Thread-47]     encoder         : Lavf54.59.106
  382. DEBUG 2013-07-31 22:24:20.520 [Thread-47]     Stream #0:0: Video: mjpeg, yuvj420p, 320x180, q=2-31, 200 kb/s, 90k tbn, 30 tbc
  383. DEBUG 2013-07-31 22:24:20.520 [Thread-47] Stream mapping:
  384. DEBUG 2013-07-31 22:24:20.520 [Thread-47]   Stream #0:1 -> #0:0 (rv40 -> mjpeg)
  385. DEBUG 2013-07-31 22:24:20.520 [Thread-47] Press [q] to stop, [?] for help
  386. DEBUG 2013-07-31 22:24:20.686 [Thread-47] frame=    1 fps=0.0 q=0.0 Lsize=N/A time=00:00:00.03 bitrate=N/A dup=0 drop=39    
  387. DEBUG 2013-07-31 22:24:20.686 [Thread-47] video:9kB audio:0kB subtitle:0 global headers:0kB muxing overhead -100.235344%
  388. DEBUG 2013-07-31 22:24:20.956 [New I/O server worker #1-3] Starting "/Applications/PS3 Media Server.app/Contents/Resources/Java/osx/ffmpeg" -ss 2 -i /Users/chinhui/Movies/QvodPlayer/蜡笔小新第66集[diaoqin.com].rm -an -an -s 320x180 -vframes 1 -f image2 pipe:
  389. DEBUG 2013-07-31 22:24:20.996 [Thread-51] ffmpeg version 1.1.2 (PMS3) for PS3 Media Server Copyright (c) 2000-2013 the FFmpeg developers
  390. DEBUG 2013-07-31 22:24:20.996 [Thread-51]   built on Feb 10 2013 14:02:18 with llvm-gcc 4.2.1 (LLVM build 2336.11.00)
  391. DEBUG 2013-07-31 22:24:20.996 [Thread-51]   configuration: http://git.io/ZHdseg
  392. INFO  2013-07-31 22:24:20.997 [New I/O server worker #1-3] Successfully initialized buffer to 1,048,576 bytes.
  393. DEBUG 2013-07-31 22:24:21.001 [New I/O server worker #1-3] Attaching thread: ffmpeg-11
  394. DEBUG 2013-07-31 22:24:21.002 [New I/O server worker #1-3] Unix process ID (/Applications/PS3 Media Server.app/Contents/Resources/Java/osx/ffmpeg): 3388
  395. DEBUG 2013-07-31 22:24:21.020 [Thread-51] [rm @ 0x7f9d9b806600] Invalid stream index 2 for index at pos 11052217
  396. DEBUG 2013-07-31 22:24:21.038 [Thread-51] Input #0, rm, from '/Users/chinhui/Movies/QvodPlayer/蜡笔小新第66集[diaoqin.com].rm':
  397. DEBUG 2013-07-31 22:24:21.038 [Thread-51]   Metadata:
  398. DEBUG 2013-07-31 22:24:21.038 [Thread-51]     title           : 2-106
  399. DEBUG 2013-07-31 22:24:21.038 [Thread-51]     author          :
  400. DEBUG 2013-07-31 22:24:21.038 [Thread-51]     copyright       : (c)2002 RealMedia
  401. DEBUG 2013-07-31 22:24:21.038 [Thread-51]     comment         :
  402. DEBUG 2013-07-31 22:24:21.038 [Thread-51]     ASMRuleBook     : #($Bandwidth >= 0),Stream0Bandwidth = 96468, Stream1Bandwidth = 103532;
  403. DEBUG 2013-07-31 22:24:21.038 [Thread-51]     Audiences       : BatchRealProducer's Audience;
  404. DEBUG 2013-07-31 22:24:21.039 [Thread-51]     audioMode       : music
  405. DEBUG 2013-07-31 22:24:21.039 [Thread-51]     Creation Date   : 11/7/2003 21:44:02
  406. DEBUG 2013-07-31 22:24:21.039 [Thread-51]     Description     : This RealMedia File Compressed by Batch Real Producer
  407. DEBUG 2013-07-31 22:24:21.039 [Thread-51]     Generated By    : Helix DNA Producer SDK 9.2 for Windows, Build 9.2.0.306
  408. DEBUG 2013-07-31 22:24:21.039 [Thread-51]     Modification Date: 11/7/2003 21:44:02
  409. DEBUG 2013-07-31 22:24:21.039 [Thread-51]     videoMode       : sharp
  410. DEBUG 2013-07-31 22:24:21.039 [Thread-51]   Duration: 00:07:05.47, start: 0.000000, bitrate: 207 kb/s
  411. DEBUG 2013-07-31 22:24:21.039 [Thread-51]     Stream #0:0: Audio: cook (cook / 0x6B6F6F63), 44100 Hz, stereo, fltp, 96 kb/s
  412. DEBUG 2013-07-31 22:24:21.039 [Thread-51]     Stream #0:1: Video: rv40 (RV40 / 0x30345652), yuv420p, 352x288, 106 kb/s, 30 fps, 30 tbr, 1k tbn, 1k tbc
  413. DEBUG 2013-07-31 22:24:21.043 [Thread-51] Output #0, image2, to 'pipe:':
  414. DEBUG 2013-07-31 22:24:21.044 [Thread-51]   Metadata:
  415. DEBUG 2013-07-31 22:24:21.044 [Thread-51]     title           : 2-106
  416. DEBUG 2013-07-31 22:24:21.044 [Thread-51]     author          :
  417. DEBUG 2013-07-31 22:24:21.044 [Thread-51]     copyright       : (c)2002 RealMedia
  418. DEBUG 2013-07-31 22:24:21.044 [Thread-51]     comment         :
  419. DEBUG 2013-07-31 22:24:21.044 [Thread-51]     ASMRuleBook     : #($Bandwidth >= 0),Stream0Bandwidth = 96468, Stream1Bandwidth = 103532;
  420. DEBUG 2013-07-31 22:24:21.044 [Thread-51]     Audiences       : BatchRealProducer's Audience;
  421. DEBUG 2013-07-31 22:24:21.045 [Thread-51]     audioMode       : music
  422. DEBUG 2013-07-31 22:24:21.045 [Thread-51]     Creation Date   : 11/7/2003 21:44:02
  423. DEBUG 2013-07-31 22:24:21.045 [Thread-51]     Description     : This RealMedia File Compressed by Batch Real Producer
  424. DEBUG 2013-07-31 22:24:21.045 [Thread-51]     Generated By    : Helix DNA Producer SDK 9.2 for Windows, Build 9.2.0.306
  425. DEBUG 2013-07-31 22:24:21.045 [Thread-51]     Modification Date: 11/7/2003 21:44:02
  426. DEBUG 2013-07-31 22:24:21.045 [Thread-51]     videoMode       : sharp
  427. DEBUG 2013-07-31 22:24:21.045 [Thread-51]     encoder         : Lavf54.59.106
  428. DEBUG 2013-07-31 22:24:21.045 [Thread-51]     Stream #0:0: Video: mjpeg, yuvj420p, 320x180, q=2-31, 200 kb/s, 90k tbn, 30 tbc
  429. DEBUG 2013-07-31 22:24:21.045 [Thread-51] Stream mapping:
  430. DEBUG 2013-07-31 22:24:21.045 [Thread-51]   Stream #0:1 -> #0:0 (rv40 -> mjpeg)
  431. DEBUG 2013-07-31 22:24:21.045 [Thread-51] Press [q] to stop, [?] for help
  432. DEBUG 2013-07-31 22:24:21.125 [Thread-51] frame=    1 fps=0.0 q=0.0 Lsize=N/A time=00:00:00.03 bitrate=N/A dup=0 drop=43    
  433. DEBUG 2013-07-31 22:24:21.125 [Thread-51] video:8kB audio:0kB subtitle:0 global headers:0kB muxing overhead -100.283542%
  434. DEBUG 2013-07-31 22:24:21.360 [New I/O server worker #1-4] Starting "/Applications/PS3 Media Server.app/Contents/Resources/Java/osx/ffmpeg" -ss 2 -i /Users/chinhui/Movies/QvodPlayer/蜡笔小新第67集[diaoqin.com].rm -an -an -s 320x180 -vframes 1 -f image2 pipe:
  435. DEBUG 2013-07-31 22:24:21.400 [Thread-55] ffmpeg version 1.1.2 (PMS3) for PS3 Media Server Copyright (c) 2000-2013 the FFmpeg developers
  436. DEBUG 2013-07-31 22:24:21.400 [Thread-55]   built on Feb 10 2013 14:02:18 with llvm-gcc 4.2.1 (LLVM build 2336.11.00)
  437. DEBUG 2013-07-31 22:24:21.400 [Thread-55]   configuration: http://git.io/ZHdseg
  438. INFO  2013-07-31 22:24:21.401 [New I/O server worker #1-4] Successfully initialized buffer to 1,048,576 bytes.
  439. DEBUG 2013-07-31 22:24:21.403 [New I/O server worker #1-4] Attaching thread: ffmpeg-12
  440. DEBUG 2013-07-31 22:24:21.405 [New I/O server worker #1-4] Unix process ID (/Applications/PS3 Media Server.app/Contents/Resources/Java/osx/ffmpeg): 3389
  441. DEBUG 2013-07-31 22:24:21.424 [Thread-55] [rm @ 0x7f94e0806600] Invalid stream index 2 for index at pos 10831093
  442. DEBUG 2013-07-31 22:24:21.438 [Thread-55] Input #0, rm, from '/Users/chinhui/Movies/QvodPlayer/蜡笔小新第67集[diaoqin.com].rm':
  443. DEBUG 2013-07-31 22:24:21.438 [Thread-55]   Metadata:
  444. DEBUG 2013-07-31 22:24:21.438 [Thread-55]     title           : 2-107
  445. DEBUG 2013-07-31 22:24:21.438 [Thread-55]     author          :
  446. DEBUG 2013-07-31 22:24:21.438 [Thread-55]     copyright       : (c)2002 RealMedia
  447. DEBUG 2013-07-31 22:24:21.438 [Thread-55]     comment         :
  448. DEBUG 2013-07-31 22:24:21.438 [Thread-55]     ASMRuleBook     : #($Bandwidth >= 0),Stream0Bandwidth = 96468, Stream1Bandwidth = 103532;
  449. DEBUG 2013-07-31 22:24:21.438 [Thread-55]     Audiences       : BatchRealProducer's Audience;
  450. DEBUG 2013-07-31 22:24:21.438 [Thread-55]     audioMode       : music
  451. DEBUG 2013-07-31 22:24:21.438 [Thread-55]     Creation Date   : 11/7/2003 21:46:20
  452. DEBUG 2013-07-31 22:24:21.438 [Thread-55]     Description     : This RealMedia File Compressed by Batch Real Producer
  453. DEBUG 2013-07-31 22:24:21.438 [Thread-55]     Generated By    : Helix DNA Producer SDK 9.2 for Windows, Build 9.2.0.306
  454. DEBUG 2013-07-31 22:24:21.439 [Thread-55]     Modification Date: 11/7/2003 21:46:20
  455. DEBUG 2013-07-31 22:24:21.439 [Thread-55]     videoMode       : sharp
  456. DEBUG 2013-07-31 22:24:21.439 [Thread-55]   Duration: 00:07:05.47, start: 0.000000, bitrate: 203 kb/s
  457. DEBUG 2013-07-31 22:24:21.439 [Thread-55]     Stream #0:0: Audio: cook (cook / 0x6B6F6F63), 44100 Hz, stereo, fltp, 96 kb/s
  458. DEBUG 2013-07-31 22:24:21.439 [Thread-55]     Stream #0:1: Video: rv40 (RV40 / 0x30345652), yuv420p, 352x288, 102 kb/s, 30 fps, 30 tbr, 1k tbn, 1k tbc
  459. DEBUG 2013-07-31 22:24:21.443 [Thread-55] Output #0, image2, to 'pipe:':
  460. DEBUG 2013-07-31 22:24:21.443 [Thread-55]   Metadata:
  461. DEBUG 2013-07-31 22:24:21.443 [Thread-55]     title           : 2-107
  462. DEBUG 2013-07-31 22:24:21.443 [Thread-55]     author          :
  463. DEBUG 2013-07-31 22:24:21.443 [Thread-55]     copyright       : (c)2002 RealMedia
  464. DEBUG 2013-07-31 22:24:21.443 [Thread-55]     comment         :
  465. DEBUG 2013-07-31 22:24:21.445 [Thread-55]     ASMRuleBook     : #($Bandwidth >= 0),Stream0Bandwidth = 96468, Stream1Bandwidth = 103532;
  466. DEBUG 2013-07-31 22:24:21.445 [Thread-55]     Audiences       : BatchRealProducer's Audience;
  467. DEBUG 2013-07-31 22:24:21.445 [Thread-55]     audioMode       : music
  468. DEBUG 2013-07-31 22:24:21.445 [Thread-55]     Creation Date   : 11/7/2003 21:46:20
  469. DEBUG 2013-07-31 22:24:21.445 [Thread-55]     Description     : This RealMedia File Compressed by Batch Real Producer
  470. DEBUG 2013-07-31 22:24:21.445 [Thread-55]     Generated By    : Helix DNA Producer SDK 9.2 for Windows, Build 9.2.0.306
  471. DEBUG 2013-07-31 22:24:21.445 [Thread-55]     Modification Date: 11/7/2003 21:46:20
  472. DEBUG 2013-07-31 22:24:21.445 [Thread-55]     videoMode       : sharp
  473. DEBUG 2013-07-31 22:24:21.445 [Thread-55]     encoder         : Lavf54.59.106
  474. DEBUG 2013-07-31 22:24:21.445 [Thread-55]     Stream #0:0: Video: mjpeg, yuvj420p, 320x180, q=2-31, 200 kb/s, 90k tbn, 30 tbc
  475. DEBUG 2013-07-31 22:24:21.445 [Thread-55] Stream mapping:
  476. DEBUG 2013-07-31 22:24:21.445 [Thread-55]   Stream #0:1 -> #0:0 (rv40 -> mjpeg)
  477. DEBUG 2013-07-31 22:24:21.445 [Thread-55] Press [q] to stop, [?] for help
  478. DEBUG 2013-07-31 22:24:21.520 [Thread-55] frame=    1 fps=0.0 q=0.0 Lsize=N/A time=00:00:00.03 bitrate=N/A dup=0 drop=37    
  479. DEBUG 2013-07-31 22:24:21.521 [Thread-55] video:8kB audio:0kB subtitle:0 global headers:0kB muxing overhead -100.259128%
  480. DEBUG 2013-07-31 22:24:21.787 [New I/O server worker #1-1] Starting "/Applications/PS3 Media Server.app/Contents/Resources/Java/osx/ffmpeg" -ss 2 -i /Users/chinhui/Movies/QvodPlayer/蜡笔小新第68集[diaoqin.com].rm -an -an -s 320x180 -vframes 1 -f image2 pipe:
  481. INFO  2013-07-31 22:24:21.859 [New I/O server worker #1-1] Successfully initialized buffer to 1,048,576 bytes.
  482. DEBUG 2013-07-31 22:24:21.862 [New I/O server worker #1-1] Attaching thread: ffmpeg-13
  483. DEBUG 2013-07-31 22:24:21.863 [New I/O server worker #1-1] Unix process ID (/Applications/PS3 Media Server.app/Contents/Resources/Java/osx/ffmpeg): 3390
  484. DEBUG 2013-07-31 22:24:21.894 [Thread-59] ffmpeg version 1.1.2 (PMS3) for PS3 Media Server Copyright (c) 2000-2013 the FFmpeg developers
  485. DEBUG 2013-07-31 22:24:21.895 [Thread-59]   built on Feb 10 2013 14:02:18 with llvm-gcc 4.2.1 (LLVM build 2336.11.00)
  486. DEBUG 2013-07-31 22:24:21.895 [Thread-59]   configuration: http://git.io/ZHdseg
  487. DEBUG 2013-07-31 22:24:21.934 [Thread-59] [rm @ 0x7ff8c3006600] Invalid stream index 2 for index at pos 10870257
  488. DEBUG 2013-07-31 22:24:21.950 [Thread-59] Input #0, rm, from '/Users/chinhui/Movies/QvodPlayer/蜡笔小新第68集[diaoqin.com].rm':
  489. DEBUG 2013-07-31 22:24:21.950 [Thread-59]   Metadata:
  490. DEBUG 2013-07-31 22:24:21.950 [Thread-59]     title           : 2-108
  491. DEBUG 2013-07-31 22:24:21.950 [Thread-59]     author          :
  492. DEBUG 2013-07-31 22:24:21.951 [Thread-59]     copyright       : (c)2002 RealMedia
  493. DEBUG 2013-07-31 22:24:21.951 [Thread-59]     comment         :
  494. DEBUG 2013-07-31 22:24:21.951 [Thread-59]     ASMRuleBook     : #($Bandwidth >= 0),Stream0Bandwidth = 96468, Stream1Bandwidth = 103532;
  495. DEBUG 2013-07-31 22:24:21.951 [Thread-59]     Audiences       : BatchRealProducer's Audience;
  496. DEBUG 2013-07-31 22:24:21.951 [Thread-59]     audioMode       : music
  497. DEBUG 2013-07-31 22:24:21.951 [Thread-59]     Creation Date   : 11/7/2003 21:48:34
  498. DEBUG 2013-07-31 22:24:21.951 [Thread-59]     Description     : This RealMedia File Compressed by Batch Real Producer
  499. DEBUG 2013-07-31 22:24:21.951 [Thread-59]     Generated By    : Helix DNA Producer SDK 9.2 for Windows, Build 9.2.0.306
  500. DEBUG 2013-07-31 22:24:21.951 [Thread-59]     Modification Date: 11/7/2003 21:48:34
  501. DEBUG 2013-07-31 22:24:21.951 [Thread-59]     videoMode       : sharp
  502. DEBUG 2013-07-31 22:24:21.951 [Thread-59]   Duration: 00:07:05.47, start: 0.000000, bitrate: 204 kb/s
  503. DEBUG 2013-07-31 22:24:21.951 [Thread-59]     Stream #0:0: Audio: cook (cook / 0x6B6F6F63), 44100 Hz, stereo, fltp, 96 kb/s
  504. DEBUG 2013-07-31 22:24:21.951 [Thread-59]     Stream #0:1: Video: rv40 (RV40 / 0x30345652), yuv420p, 352x288, 103 kb/s, 30 fps, 30 tbr, 1k tbn, 1k tbc
  505. DEBUG 2013-07-31 22:24:21.955 [Thread-59] Output #0, image2, to 'pipe:':
  506. DEBUG 2013-07-31 22:24:21.956 [Thread-59]   Metadata:
  507. DEBUG 2013-07-31 22:24:21.956 [Thread-59]     title           : 2-108
  508. DEBUG 2013-07-31 22:24:21.957 [Thread-59]     author          :
  509. DEBUG 2013-07-31 22:24:21.957 [Thread-59]     copyright       : (c)2002 RealMedia
  510. DEBUG 2013-07-31 22:24:21.957 [Thread-59]     comment         :
  511. DEBUG 2013-07-31 22:24:21.957 [Thread-59]     ASMRuleBook     : #($Bandwidth >= 0),Stream0Bandwidth = 96468, Stream1Bandwidth = 103532;
  512. DEBUG 2013-07-31 22:24:21.957 [Thread-59]     Audiences       : BatchRealProducer's Audience;
  513. DEBUG 2013-07-31 22:24:21.957 [Thread-59]     audioMode       : music
  514. DEBUG 2013-07-31 22:24:21.957 [Thread-59]     Creation Date   : 11/7/2003 21:48:34
  515. DEBUG 2013-07-31 22:24:21.957 [Thread-59]     Description     : This RealMedia File Compressed by Batch Real Producer
  516. DEBUG 2013-07-31 22:24:21.957 [Thread-59]     Generated By    : Helix DNA Producer SDK 9.2 for Windows, Build 9.2.0.306
  517. DEBUG 2013-07-31 22:24:21.957 [Thread-59]     Modification Date: 11/7/2003 21:48:34
  518. DEBUG 2013-07-31 22:24:21.957 [Thread-59]     videoMode       : sharp
  519. DEBUG 2013-07-31 22:24:21.957 [Thread-59]     encoder         : Lavf54.59.106
  520. DEBUG 2013-07-31 22:24:21.957 [Thread-59]     Stream #0:0: Video: mjpeg, yuvj420p, 320x180, q=2-31, 200 kb/s, 90k tbn, 30 tbc
  521. DEBUG 2013-07-31 22:24:21.957 [Thread-59] Stream mapping:
  522. DEBUG 2013-07-31 22:24:21.957 [Thread-59]   Stream #0:1 -> #0:0 (rv40 -> mjpeg)
  523. DEBUG 2013-07-31 22:24:21.957 [Thread-59] Press [q] to stop, [?] for help
  524. DEBUG 2013-07-31 22:24:22.028 [Thread-59] frame=    1 fps=0.0 q=0.0 Lsize=N/A time=00:00:00.03 bitrate=N/A dup=0 drop=35    
  525. DEBUG 2013-07-31 22:24:22.029 [Thread-59] video:10kB audio:0kB subtitle:0 global headers:0kB muxing overhead -100.204956%
  526. DEBUG 2013-07-31 22:24:22.051 [Buffered IO End Checker] Stopping Unix process 3385: ffmpeg-8
  527. INFO  2013-07-31 22:24:22.055 [Buffered IO End Checker] Destroying buffer
  528. DEBUG 2013-07-31 22:24:22.408 [New I/O server worker #1-2] Starting "/Applications/PS3 Media Server.app/Contents/Resources/Java/osx/ffmpeg" -ss 2 -i /Users/chinhui/Movies/QvodPlayer/蜡笔小新第69集[diaoqin.com].rm -an -an -s 320x180 -vframes 1 -f image2 pipe:
  529. INFO  2013-07-31 22:24:22.467 [New I/O server worker #1-2] Successfully initialized buffer to 1,048,576 bytes.
  530. DEBUG 2013-07-31 22:24:22.469 [New I/O server worker #1-2] Attaching thread: ffmpeg-14
  531. DEBUG 2013-07-31 22:24:22.469 [New I/O server worker #1-2] Unix process ID (/Applications/PS3 Media Server.app/Contents/Resources/Java/osx/ffmpeg): 3391
  532. DEBUG 2013-07-31 22:24:22.596 [Buffered IO End Checker] Stopping Unix process 3386: ffmpeg-9
  533. INFO  2013-07-31 22:24:22.605 [Buffered IO End Checker] Destroying buffer
  534. DEBUG 2013-07-31 22:24:22.681 [Thread-63] ffmpeg version 1.1.2 (PMS3) for PS3 Media Server Copyright (c) 2000-2013 the FFmpeg developers
  535. DEBUG 2013-07-31 22:24:22.681 [Thread-63]   built on Feb 10 2013 14:02:18 with llvm-gcc 4.2.1 (LLVM build 2336.11.00)
  536. DEBUG 2013-07-31 22:24:22.681 [Thread-63]   configuration: http://git.io/ZHdseg
  537. DEBUG 2013-07-31 22:24:22.702 [Thread-63] [rm @ 0x7ff7cb006600] Invalid stream index 2 for index at pos 10959347
  538. DEBUG 2013-07-31 22:24:22.722 [Thread-63] Input #0, rm, from '/Users/chinhui/Movies/QvodPlayer/蜡笔小新第69集[diaoqin.com].rm':
  539. DEBUG 2013-07-31 22:24:22.723 [Thread-63]   Metadata:
  540. DEBUG 2013-07-31 22:24:22.723 [Thread-63]     title           : 2-109
  541. DEBUG 2013-07-31 22:24:22.723 [Thread-63]     author          :
  542. DEBUG 2013-07-31 22:24:22.723 [Thread-63]     copyright       : (c)2002 RealMedia
  543. DEBUG 2013-07-31 22:24:22.723 [Thread-63]     comment         :
  544. DEBUG 2013-07-31 22:24:22.723 [Thread-63]     ASMRuleBook     : #($Bandwidth >= 0),Stream0Bandwidth = 96468, Stream1Bandwidth = 103532;
  545. DEBUG 2013-07-31 22:24:22.723 [Thread-63]     Audiences       : BatchRealProducer's Audience;
  546. DEBUG 2013-07-31 22:24:22.723 [Thread-63]     audioMode       : music
  547. DEBUG 2013-07-31 22:24:22.723 [Thread-63]     Creation Date   : 11/7/2003 21:50:55
  548. DEBUG 2013-07-31 22:24:22.723 [Thread-63]     Description     : This RealMedia File Compressed by Batch Real Producer
  549. DEBUG 2013-07-31 22:24:22.723 [Thread-63]     Generated By    : Helix DNA Producer SDK 9.2 for Windows, Build 9.2.0.306
  550. DEBUG 2013-07-31 22:24:22.723 [Thread-63]     Modification Date: 11/7/2003 21:50:55
  551. DEBUG 2013-07-31 22:24:22.723 [Thread-63]     videoMode       : sharp
  552. DEBUG 2013-07-31 22:24:22.723 [Thread-63]   Duration: 00:07:05.47, start: 0.000000, bitrate: 206 kb/s
  553. DEBUG 2013-07-31 22:24:22.723 [Thread-63]     Stream #0:0: Audio: cook (cook / 0x6B6F6F63), 44100 Hz, stereo, fltp, 96 kb/s
  554. DEBUG 2013-07-31 22:24:22.723 [Thread-63]     Stream #0:1: Video: rv40 (RV40 / 0x30345652), yuv420p, 352x288, 104 kb/s, 30 fps, 30 tbr, 1k tbn, 1k tbc
  555. DEBUG 2013-07-31 22:24:22.727 [Thread-63] Output #0, image2, to 'pipe:':
  556. DEBUG 2013-07-31 22:24:22.727 [Thread-63]   Metadata:
  557. DEBUG 2013-07-31 22:24:22.727 [Thread-63]     title           : 2-109
  558. DEBUG 2013-07-31 22:24:22.727 [Thread-63]     author          :
  559. DEBUG 2013-07-31 22:24:22.727 [Thread-63]     copyright       : (c)2002 RealMedia
  560. DEBUG 2013-07-31 22:24:22.727 [Thread-63]     comment         :
  561. DEBUG 2013-07-31 22:24:22.727 [Thread-63]     ASMRuleBook     : #($Bandwidth >= 0),Stream0Bandwidth = 96468, Stream1Bandwidth = 103532;
  562. DEBUG 2013-07-31 22:24:22.727 [Thread-63]     Audiences       : BatchRealProducer's Audience;
  563. DEBUG 2013-07-31 22:24:22.727 [Thread-63]     audioMode       : music
  564. DEBUG 2013-07-31 22:24:22.727 [Thread-63]     Creation Date   : 11/7/2003 21:50:55
  565. DEBUG 2013-07-31 22:24:22.727 [Thread-63]     Description     : This RealMedia File Compressed by Batch Real Producer
  566. DEBUG 2013-07-31 22:24:22.728 [Thread-63]     Generated By    : Helix DNA Producer SDK 9.2 for Windows, Build 9.2.0.306
  567. DEBUG 2013-07-31 22:24:22.728 [Thread-63]     Modification Date: 11/7/2003 21:50:55
  568. DEBUG 2013-07-31 22:24:22.728 [Thread-63]     videoMode       : sharp
  569. DEBUG 2013-07-31 22:24:22.728 [Thread-63]     encoder         : Lavf54.59.106
  570. DEBUG 2013-07-31 22:24:22.728 [Thread-63]     Stream #0:0: Video: mjpeg, yuvj420p, 320x180, q=2-31, 200 kb/s, 90k tbn, 30 tbc
  571. DEBUG 2013-07-31 22:24:22.728 [Thread-63] Stream mapping:
  572. DEBUG 2013-07-31 22:24:22.728 [Thread-63]   Stream #0:1 -> #0:0 (rv40 -> mjpeg)
  573. DEBUG 2013-07-31 22:24:22.728 [Thread-63] Press [q] to stop, [?] for help
  574. DEBUG 2013-07-31 22:24:22.795 [Thread-63] frame=    1 fps=0.0 q=0.0 Lsize=N/A time=00:00:00.03 bitrate=N/A dup=0 drop=35    
  575. DEBUG 2013-07-31 22:24:22.795 [Thread-63] video:8kB audio:0kB subtitle:0 global headers:0kB muxing overhead -100.274691%
  576. DEBUG 2013-07-31 22:24:22.851 [Buffered IO End Checker] Stopping Unix process 3383: mencoder-7
  577. INFO  2013-07-31 22:24:22.852 [Buffered IO End Checker] Destroying buffer
  578. DEBUG 2013-07-31 22:24:22.864 [Thread-33] Error consuming stream of spawned process: Stream closed
  579. DEBUG 2013-07-31 22:24:23.214 [Buffered IO End Checker] Stopping Unix process 3387: ffmpeg-10
  580. INFO  2013-07-31 22:24:23.215 [Buffered IO End Checker] Destroying buffer
  581. DEBUG 2013-07-31 22:24:23.632 [Buffered IO End Checker] Stopping Unix process 3388: ffmpeg-11
  582. INFO  2013-07-31 22:24:23.632 [Buffered IO End Checker] Destroying buffer
  583. DEBUG 2013-07-31 22:24:24.031 [Buffered IO End Checker] Stopping Unix process 3389: ffmpeg-12
  584. INFO  2013-07-31 22:24:24.031 [Buffered IO End Checker] Destroying buffer
  585. INFO  2013-07-31 22:24:24.352 [StopPlaying Event] Stopped sending /Users/chinhui/Movies/QvodPlayer/蜡笔小新全集_蜡笔小新全集_094.rm to Playstation 3 on 192.168.1.3
  586. DEBUG 2013-07-31 22:24:24.593 [Buffered IO End Checker] Stopping Unix process 3390: ffmpeg-13
  587. INFO  2013-07-31 22:24:24.594 [Buffered IO End Checker] Destroying buffer
  588. DEBUG 2013-07-31 22:24:25.312 [Buffered IO End Checker] Stopping Unix process 3391: ffmpeg-14
  589. INFO  2013-07-31 22:24:25.312 [Buffered IO End Checker] Destroying buffer