Want more features on Pastebin? Sign Up, it's FREE!
Guest

Gladator-wyild1

By: a guest on Apr 25th, 2010  |  syntax: None  |  size: 5.85 KB  |  views: 109  |  expires: Never
download  |  raw  |  embed  |  report abuse  |  print
Text below is selected. Please press Ctrl+C to copy to your clipboard. (⌘+C on Mac)
  1. mediainfo Gladiator.1080p.BluRay.mkv
  2. General
  3. Complete name                    : Gladiator.1080p.BluRay.mkv
  4. Format                           : Matroska
  5. File size                        : 13.0 GiB
  6. Duration                         : 2h 50mn
  7. Overall bit rate                 : 10.9 Mbps
  8. Encoded date                     : UTC 2009-09-07 19:42:34
  9. Writing application              : mkvmerge v2.9.7 ('Tenderness') built on Jul  1 2009 18:43:35
  10. Writing library                  : libebml v0.7.7 + libmatroska v0.8.1
  11.  
  12. Video
  13. ID                               : 1
  14. Format                           : AVC
  15. Format/Info                      : Advanced Video Codec
  16. Format profile                   : High@L4.1
  17. Format settings, CABAC           : Yes
  18. Format settings, ReFrames        : 5 frames
  19. Muxing mode                      : Container profile=Unknown@4.1
  20. Codec ID                         : V_MPEG4/ISO/AVC
  21. Duration                         : 2h 50mn
  22. Bit rate                         : 9 004 Kbps
  23. Nominal bit rate                 : 9 230 Kbps
  24. Width                            : 1 920 pixels
  25. Height                           : 816 pixels
  26. Display aspect ratio             : 2.35:1
  27. Frame rate                       : 23.976 fps
  28. Resolution                       : 24 bits
  29. Colorimetry                      : 4:2:0
  30. Scan type                        : Progressive
  31. Bits/(Pixel*Frame)               : 0.240
  32. Stream size                      : 10.7 GiB (83%)
  33. Title                            : 9 Mpbs AVC MPEG-4
  34. Writing library                  : x264 core 72 r1222M d0ee6f8
  35. Encoding settings                : cabac=1 / ref=5 / deblock=1:-3:-3 / analyse=0x3:0x113 / me=umh / subme=9 / psy=1 / psy_rd=0.8:0.0 / mixed_ref=1 / me_range=24 / chroma_me=1 / trellis=2 / 8x8dct=1 / cqm=0 / deadzone=21,11 / chroma_qp_offset=-2 / threads=6 / nr=0 / decimate=1 / mbaff=0 / bframes=3 / b_pyramid=0 / b_adapt=2 / b_bias=0 / direct=3 / wpredb=1 / keyint=250 / keyint_min=25 / scenecut=40 / rc_lookahead=40 / rc=2pass / mbtree=1 / bitrate=9230 / ratetol=1.0 / qcomp=0.60 / qpmin=10 / qpmax=51 / qpstep=4 / cplxblur=20.0 / qblur=0.5 / vbv_maxrate=38000 / vbv_bufsize=38000 / ip_ratio=1.40 / aq=1:0.80
  36. Language                         : English
  37.  
  38. Audio #1
  39. ID                               : 2
  40. Format                           : DTS
  41. Format/Info                      : Digital Theater Systems
  42. Codec ID                         : A_DTS
  43. Duration                         : 2h 50mn
  44. Bit rate mode                    : Constant
  45. Bit rate                         : 1 510 Kbps
  46. Channel(s)                       : 6 channels
  47. Channel positions                : Front: L C R, Surround: L R, LFE
  48. Sampling rate                    : 48.0 KHz
  49. Resolution                       : 24 bits
  50. Stream size                      : 1.80 GiB (14%)
  51. Title                            : 5.1 DTS @ 1536 kbps
  52. Language                         : English
  53.  
  54. Audio #2
  55. ID                               : 3
  56. Format                           : Vorbis
  57. Format settings, Floor           : 1
  58. Codec ID                         : A_VORBIS
  59. Duration                         : 2h 50mn
  60. Bit rate mode                    : Constant
  61. Bit rate                         : 80.0 Kbps
  62. Channel(s)                       : 2 channels
  63. Sampling rate                    : 48.0 KHz
  64. Resolution                       : 16 bits
  65. Stream size                      : 97.8 MiB (1%)
  66. Title                            : Vorbis 2.0 @ 80 kbps - commentary Ridley Scott
  67. Writing library                  : aoTuV b5c  (UTC 2008-12-15)
  68. Language                         : English
  69.  
  70. Audio #3
  71. ID                               : 4
  72. Format                           : Vorbis
  73. Format settings, Floor           : 1
  74. Codec ID                         : A_VORBIS
  75. Duration                         : 2h 50mn
  76. Bit rate mode                    : Constant
  77. Bit rate                         : 80.0 Kbps
  78. Channel(s)                       : 2 channels
  79. Sampling rate                    : 48.0 KHz
  80. Resolution                       : 16 bits
  81. Stream size                      : 97.8 MiB (1%)
  82. Title                            : Vorbis 2.0 @ 80 kbps - commentary Russell Crowe
  83. Writing library                  : aoTuV b5c  (UTC 2008-12-15)
  84. Language                         : English
  85.  
  86. Text
  87. ID                               : 5
  88. Format                           : UTF-8
  89. Codec ID                         : S_TEXT/UTF8
  90. Codec ID/Info                    : UTF-8 Plain Text
  91. Language                         : English
  92.  
  93. Menu
  94. 00:00:00.000                     : en:00:00:00.000
  95. 00:07:14.309                     : en:00:07:14.309
  96. 00:12:51.104                     : en:00:12:51.104
  97. 00:18:45.791                     : en:00:18:45.791
  98. 00:23:30.326                     : en:00:23:30.326
  99. 00:32:59.394                     : en:00:32:59.394
  100. 00:37:35.879                     : en:00:37:35.879
  101. 00:40:51.741                     : en:00:40:51.741
  102. 00:47:33.726                     : en:00:47:33.726
  103. 00:51:36.844                     : en:00:51:36.844
  104. 00:55:45.384                     : en:00:55:45.384
  105. 01:02:22.280                     : en:01:02:22.280
  106. 01:09:57.985                     : en:01:09:57.985
  107. 01:19:09.286                     : en:01:19:09.286
  108. 01:29:22.649                     : en:01:29:22.649
  109. 01:37:12.785                     : en:01:37:12.785
  110. 01:41:36.799                     : en:01:41:36.799
  111. 01:51:59.838                     : en:01:51:59.838
  112. 01:56:37.282                     : en:01:56:37.282
  113. 02:00:44.487                     : en:02:00:44.487
  114. 02:04:43.226                     : en:02:04:43.226
  115. 02:12:20.015                     : en:02:12:20.015
  116. 02:13:33.589                     : en:02:13:33.589
  117. 02:24:16.439                     : en:02:24:16.439
  118. 02:28:49.670                     : en:02:28:49.670
  119. 02:34:21.752                     : en:02:34:21.752
  120. 02:38:44.556                     : en:02:38:44.556
  121. 02:42:58.727                     : en:02:42:58.727
clone this paste RAW Paste Data