Pastebin launched a little side project called VERYVIRAL.com, check it out ;-) Want more features on Pastebin? Sign Up, it's FREE!
Guest

X-Hitman-wyild1

By: a guest on Apr 25th, 2010  |  syntax: None  |  size: 7.31 KB  |  views: 63  |  expires: Never
download  |  raw  |  embed  |  report abuse  |  print
Text below is selected. Please press Ctrl+C to copy to your clipboard. (⌘+C on Mac)
  1. mediainfo Hitman.Unrated.1080p.BluRay.mkv
  2. General
  3. Complete name                    : Hitman.Unrated.1080p.BluRay.mkv
  4. Format                           : Matroska
  5. File size                        : 7.95 GiB
  6. Duration                         : 1h 34mn
  7. Overall bit rate                 : 12.1 Mbps
  8. Encoded date                     : UTC 2008-03-31 13:51:05
  9. Writing application              : mkvmerge v2.1.0 ('Another Place To Fall') built on Aug 19 2007 13:40:07
  10. Writing library                  : libebml v0.7.7 + libmatroska v0.8.1
  11. Cover                            : Yes / Yes / Yes
  12.  
  13. Video
  14. ID                               : 1
  15. Format                           : AVC
  16. Format/Info                      : Advanced Video Codec
  17. Format profile                   : High@L5.1
  18. Format settings, CABAC           : Yes
  19. Format settings, ReFrames        : 6 frames
  20. Muxing mode                      : Container profile=Unknown@5.1
  21. Codec ID                         : V_MPEG4/ISO/AVC
  22. Duration                         : 1h 34mn
  23. Bit rate                         : 10.3 Mbps
  24. Nominal bit rate                 : 10.6 Mbps
  25. Width                            : 1 920 pixels
  26. Height                           : 822 pixels
  27. Display aspect ratio             : 2.35:1
  28. Frame rate                       : 23.976 fps
  29. Resolution                       : 24 bits
  30. Colorimetry                      : 4:2:0
  31. Scan type                        : Progressive
  32. Bits/(Pixel*Frame)               : 0.273
  33. Stream size                      : 6.79 GiB (85%)
  34. Title                            : 1920x822 @ 10558 Kbps
  35. Writing library                  : x264 core 58 r786M aa5391a
  36. Encoding settings                : cabac=1 / ref=6 / deblock=1:-3:-3 / analyse=0x3:0x133 / me=umh / subme=7 / me-prepass=1 / brdo=1 / mixed_ref=1 / me_range=16 / chroma_me=1 / trellis=0 / 8x8dct=1 / cqm=2 / deadzone=6,4 / chroma_qp_offset=0 / threads=6 / nr=0 / decimate=1 / mbaff=0 / bframes=3 / b_pyramid=1 / b_adapt=1 / b_bias=0 / direct=1 / wpredb=1 / bime=1 / keyint=250 / keyint_min=25 / scenecut=40(pre) / rc=2pass / bitrate=10558 / ratetol=1.0 / rceq='blurCplx^(1-qComp)' / qcomp=1.00 / qpmin=10 / qpmax=51 / qpstep=4 / cplxblur=20.0 / qblur=0.5 / ip_ratio=1.40 / pb_ratio=1.30 / aq=1:0.6:16.0
  37. Language                         : English
  38.  
  39. Audio
  40. ID                               : 2
  41. Format                           : DTS
  42. Format/Info                      : Digital Theater Systems
  43. Codec ID                         : A_DTS
  44. Duration                         : 1h 34mn
  45. Bit rate mode                    : Constant
  46. Bit rate                         : 1 510 Kbps
  47. Channel(s)                       : 6 channels
  48. Channel positions                : Front: L C R, Surround: L R, LFE
  49. Sampling rate                    : 48.0 KHz
  50. Resolution                       : 24 bits
  51. Stream size                      : 1 018 MiB (13%)
  52. Title                            : DTS Core 5.1 @ 1.5 Mbps
  53. Language                         : English
  54.  
  55. Text #1
  56. ID                               : 3
  57. Format                           : ASS
  58. Codec ID                         : S_TEXT/ASS
  59. Codec ID/Info                    : Advanced Sub Station Alpha
  60. Title                            : Brazilian
  61. Language                         : Portuguese
  62.  
  63. Text #2
  64. ID                               : 4
  65. Format                           : ASS
  66. Codec ID                         : S_TEXT/ASS
  67. Codec ID/Info                    : Advanced Sub Station Alpha
  68. Language                         : scr
  69.  
  70. Text #3
  71. ID                               : 5
  72. Format                           : ASS
  73. Codec ID                         : S_TEXT/ASS
  74. Codec ID/Info                    : Advanced Sub Station Alpha
  75. Language                         : Czech
  76.  
  77. Text #4
  78. ID                               : 6
  79. Format                           : ASS
  80. Codec ID                         : S_TEXT/ASS
  81. Codec ID/Info                    : Advanced Sub Station Alpha
  82. Language                         : Dutch
  83.  
  84. Text #5
  85. ID                               : 7
  86. Format                           : ASS
  87. Codec ID                         : S_TEXT/ASS
  88. Codec ID/Info                    : Advanced Sub Station Alpha
  89. Language                         : English
  90.  
  91. Text #6
  92. ID                               : 8
  93. Format                           : ASS
  94. Codec ID                         : S_TEXT/ASS
  95. Codec ID/Info                    : Advanced Sub Station Alpha
  96. Title                            : For hearing impaired
  97. Language                         : English
  98.  
  99. Text #7
  100. ID                               : 9
  101. Format                           : ASS
  102. Codec ID                         : S_TEXT/ASS
  103. Codec ID/Info                    : Advanced Sub Station Alpha
  104. Language                         : Finnish
  105.  
  106. Text #8
  107. ID                               : 10
  108. Format                           : ASS
  109. Codec ID                         : S_TEXT/ASS
  110. Codec ID/Info                    : Advanced Sub Station Alpha
  111. Language                         : French
  112.  
  113. Text #9
  114. ID                               : 11
  115. Format                           : ASS
  116. Codec ID                         : S_TEXT/ASS
  117. Codec ID/Info                    : Advanced Sub Station Alpha
  118. Language                         : German
  119.  
  120. Text #10
  121. ID                               : 12
  122. Format                           : ASS
  123. Codec ID                         : S_TEXT/ASS
  124. Codec ID/Info                    : Advanced Sub Station Alpha
  125. Language                         : Hungarian
  126.  
  127. Text #11
  128. ID                               : 13
  129. Format                           : ASS
  130. Codec ID                         : S_TEXT/ASS
  131. Codec ID/Info                    : Advanced Sub Station Alpha
  132. Language                         : Italian
  133.  
  134. Text #12
  135. ID                               : 14
  136. Format                           : ASS
  137. Codec ID                         : S_TEXT/ASS
  138. Codec ID/Info                    : Advanced Sub Station Alpha
  139. Language                         : Norwegian
  140.  
  141. Text #13
  142. ID                               : 15
  143. Format                           : ASS
  144. Codec ID                         : S_TEXT/ASS
  145. Codec ID/Info                    : Advanced Sub Station Alpha
  146. Language                         : Polish
  147.  
  148. Text #14
  149. ID                               : 16
  150. Format                           : ASS
  151. Codec ID                         : S_TEXT/ASS
  152. Codec ID/Info                    : Advanced Sub Station Alpha
  153. Language                         : Romanian
  154.  
  155. Text #15
  156. ID                               : 17
  157. Format                           : ASS
  158. Codec ID                         : S_TEXT/ASS
  159. Codec ID/Info                    : Advanced Sub Station Alpha
  160. Language                         : Serbian
  161.  
  162. Text #16
  163. ID                               : 18
  164. Format                           : ASS
  165. Codec ID                         : S_TEXT/ASS
  166. Codec ID/Info                    : Advanced Sub Station Alpha
  167. Language                         : Slovenian
  168.  
  169. Text #17
  170. ID                               : 19
  171. Format                           : ASS
  172. Codec ID                         : S_TEXT/ASS
  173. Codec ID/Info                    : Advanced Sub Station Alpha
  174. Language                         : Spanish
  175.  
  176. Text #18
  177. ID                               : 20
  178. Format                           : ASS
  179. Codec ID                         : S_TEXT/ASS
  180. Codec ID/Info                    : Advanced Sub Station Alpha
  181. Language                         : Swedish
clone this paste RAW Paste Data