Pastebin launched a little side project called VERYVIRAL.com, check it out ;-) Want more features on Pastebin? Sign Up, it's FREE!
Guest

Robocop-wyild1

By: a guest on Apr 25th, 2010  |  syntax: None  |  size: 2.72 KB  |  views: 55  |  expires: Never
download  |  raw  |  embed  |  report abuse  |  print
Text below is selected. Please press Ctrl+C to copy to your clipboard. (⌘+C on Mac)
  1. mediainfo Robocop.Directors.Cut.1080p.BluRay.mkv
  2. General
  3. Complete name                    : Robocop.Directors.Cut.1080p.BluRay.mkv
  4. Format                           : Matroska
  5. File size                        : 10.9 GiB
  6. Duration                         : 1h 43mn
  7. Overall bit rate                 : 15.1 Mbps
  8. Encoded date                     : UTC 2008-05-05 20:04:04
  9. Writing application              : mkvmerge v2.0.2 ('You're My Flame') built on Feb 21 2007 23:40:55
  10. Writing library                  : libebml v0.7.7 + libmatroska v0.8.1
  11.  
  12. Video
  13. ID                               : 1
  14. Format                           : AVC
  15. Format/Info                      : Advanced Video Codec
  16. Format profile                   : High@L4.1
  17. Format settings, CABAC           : Yes
  18. Format settings, ReFrames        : 4 frames
  19. Muxing mode                      : Container profile=Unknown@4.1
  20. Codec ID                         : V_MPEG4/ISO/AVC
  21. Duration                         : 1h 43mn
  22. Bit rate                         : 13.3 Mbps
  23. Nominal bit rate                 : 13.6 Mbps
  24. Width                            : 1 920 pixels
  25. Height                           : 1 040 pixels
  26. Display aspect ratio             : 16:9
  27. Frame rate                       : 23.976 fps
  28. Resolution                       : 24 bits
  29. Colorimetry                      : 4:2:0
  30. Scan type                        : Progressive
  31. Bits/(Pixel*Frame)               : 0.278
  32. Stream size                      : 9.60 GiB (88%)
  33. Writing library                  : x264 core 59 r839M 27c3071
  34. Encoding settings                : cabac=1 / ref=4 / deblock=1:-3:-3 / analyse=0x3:0x133 / me=umh / subme=7 / me-prepass=0 / brdo=1 / mixed_ref=1 / me_range=16 / chroma_me=1 / trellis=0 / 8x8dct=1 / cqm=2 / deadzone=6,4 / chroma_qp_offset=0 / threads=3 / nr=0 / decimate=1 / mbaff=0 / fgo=0 / bframes=16 / b_pyramid=1 / b_adapt=1 / b_bias=0 / direct=3 / wpredb=1 / bime=1 / keyint=250 / keyint_min=25 / scenecut=40(pre) / rc=2pass / bitrate=13627 / ratetol=1.0 / rceq='blurCplx^(1-qComp)' / qcomp=1.00 / qpmin=10 / qpmax=51 / qpstep=4 / cplxblur=20.0 / qblur=0.5 / ip_ratio=1.40 / pb_ratio=1.30 / aq=2:0.70
  35. Language                         : English
  36.  
  37. Audio
  38. ID                               : 2
  39. Format                           : DTS
  40. Format/Info                      : Digital Theater Systems
  41. Codec ID                         : A_DTS
  42. Duration                         : 1h 43mn
  43. Bit rate mode                    : Constant
  44. Bit rate                         : 1 510 Kbps
  45. Channel(s)                       : 6 channels
  46. Channel positions                : Front: L C R, Surround: L R, LFE
  47. Sampling rate                    : 48.0 KHz
  48. Resolution                       : 24 bits
  49. Stream size                      : 1.09 GiB (10%)