Pastebin launched a little side project called VERYVIRAL.com, check it out ;-) Want more features on Pastebin? Sign Up, it's FREE!
Guest

Untitled

By: a guest on Apr 2nd, 2012  |  syntax: None  |  size: 3.11 KB  |  views: 22  |  expires: Never
download  |  raw  |  embed  |  report abuse  |  print
Text below is selected. Please press Ctrl+C to copy to your clipboard. (⌘+C on Mac)
  1. tango@despacho:~/Compartida$ mediainfo Hellion\ El\ Angel\ Caido\ \[DVDRip\]\ \[Spanish\]\ \[www.divxatope.com\].avi
  2. General
  3. Complete name                            : Hellion El Angel Caido [DVDRip] [Spanish] [www.divxatope.com].avi
  4. Format                                   : AVI
  5. Format/Info                              : Audio Video Interleave
  6. File size                                : 700 MiB
  7. Duration                                 : 1h 30mn
  8. Overall bit rate mode                    : Variable
  9. Overall bit rate                         : 1 084 Kbps
  10. Writing application                      : VirtualDubMod 1.5.10.2 (build 2540/release)
  11. Writing library                          : VirtualDubMod build 2540/release
  12.  
  13. Video
  14. ID                                       : 0
  15. Format                                   : MPEG-4 Visual
  16. Format profile                           : Advanced Simple@L5
  17. Format settings, BVOP                    : 2
  18. Format settings, QPel                    : No
  19. Format settings, GMC                     : No warppoints
  20. Format settings, Matrix                  : Default (H.263)
  21. Muxing mode                              : Packed bitstream
  22. Codec ID                                 : XVID
  23. Codec ID/Hint                            : XviD
  24. Duration                                 : 1h 30mn
  25. Bit rate                                 : 945 Kbps
  26. Width                                    : 544 pixels
  27. Height                                   : 304 pixels
  28. Display aspect ratio                     : 16:9
  29. Frame rate                               : 25.000 fps
  30. Color space                              : YUV
  31. Chroma subsampling                       : 4:2:0
  32. Bit depth                                : 8 bits
  33. Scan type                                : Progressive
  34. Compression mode                         : Lossy
  35. Bits/(Pixel*Frame)                       : 0.229
  36. Stream size                              : 610 MiB (87%)
  37. Writing library                          : XviD 1.1.2 (UTC 2006-11-01)
  38.  
  39. Audio
  40. ID                                       : 1
  41. Format                                   : MPEG Audio
  42. Format version                           : Version 1
  43. Format profile                           : Layer 3
  44. Mode                                     : Joint stereo
  45. Mode extension                           : MS Stereo
  46. Codec ID                                 : 55
  47. Codec ID/Hint                            : MP3
  48. Duration                                 : 1h 30mn
  49. Bit rate mode                            : Variable
  50. Bit rate                                 : 128 Kbps
  51. Channel(s)                               : 2 channels
  52. Sampling rate                            : 48.0 KHz
  53. Compression mode                         : Lossy
  54. Stream size                              : 81.3 MiB (12%)
  55. Alignment                                : Aligned on interleaves
  56. Interleave, duration                     : 24 ms (0.60 video frame)
  57. Interleave, preload duration             : 347 ms
  58. Writing library                          : LAME3.90.
  59. Encoding settings                        : -m j -V 4 -q 2 -lowpass 17.6 --abr 128
  60.  
  61.  
  62. tango@despacho:~/Compartida$