This week only. Pastebin PRO Accounts Christmas Special! Don't miss out!Want more features on Pastebin? Sign Up, it's FREE!
Guest

Untitled

By: a guest on Oct 8th, 2010  |  syntax: None  |  size: 1.78 KB  |  views: 76  |  expires: Never
download  |  raw  |  embed  |  report abuse  |  print
Text below is selected. Please press Ctrl+C to copy to your clipboard. (⌘+C on Mac)
  1. General
  2. Complete name                    : /Users/gb/Desktop/TestFileCrystalHD.mpeg
  3. Format                           : MPEG-PS
  4. File size                        : 76.6 MiB
  5. Duration                         : 36s 352ms
  6. Overall bit rate                 : 17.7 Mbps
  7.  
  8. Video
  9. ID                               : 224 (0xE0)
  10. Format                           : MPEG Video
  11. Format version                   : Version 2
  12. Format profile                   : Main@High
  13. Format settings, BVOP            : Yes
  14. Format settings, Matrix          : Default
  15. Duration                         : 36s 69ms
  16. Bit rate mode                    : Constant
  17. Bit rate                         : 17.2 Mbps
  18. Width                            : 1 920 pixels
  19. Height                           : 1 080 pixels
  20. Display aspect ratio             : 16:9
  21. Frame rate                       : 29.970 fps
  22. Standard                         : Component
  23. Color space                      : YUV
  24. Chroma subsampling               : 4:2:0
  25. Bit depth                        : 8 bits
  26. Scan type                        : Interlaced
  27. Scan order                       : Top Field First
  28. Bits/(Pixel*Frame)               : 0.277
  29. Stream size                      : 72.8 MiB (95%)
  30.  
  31. Audio
  32. ID                               : 128 (0x80)
  33. Format                           : AC-3
  34. Format/Info                      : Audio Coding 3
  35. Mode extension                   : CM (complete main)
  36. Duration                         : 36s 352ms
  37. Bit rate mode                    : Constant
  38. Bit rate                         : 384 Kbps
  39. Channel(s)                       : 6 channels
  40. Channel positions                : Front: L C R, Side: L R, LFE
  41. Sampling rate                    : 48.0 KHz
  42. Bit depth                        : 16 bits
  43. Stream size                      : 1.66 MiB (2%)
clone this paste RAW Paste Data