Pastebin launched a little side project called HostCabi.net, check it out ;-)Don't like ads? PRO users don't see any ads ;-)
Guest

Untitled

By: a guest on Jul 18th, 2012  |  syntax: None  |  size: 1.15 KB  |  hits: 29  |  expires: Never
download  |  raw  |  embed  |  report abuse  |  print
Text below is selected. Please press Ctrl+C to copy to your clipboard. (⌘+C on Mac)
  1. macbook:ffmpeg memphis$ ./ffmpeg -dsth 720 -sws_flags fast_bilinear -i testpic.jpg testpic-sized.jpg
  2. ffmpeg version 0.10.2 Copyright (c) 2000-2012 the FFmpeg developers
  3.   built on Jul 17 2012 22:04:19 with gcc 4.2.1 (Apple Inc. build 5666) (dot 3)
  4.   configuration: --disable-avfilter --disable-yasm
  5.   libavutil      51. 35.100 / 51. 35.100
  6.   libavcodec     53. 61.100 / 53. 61.100
  7.   libavformat    53. 32.100 / 53. 32.100
  8.   libavdevice    53.  4.100 / 53.  4.100
  9.   libswscale      2.  1.100 /  2.  1.100
  10.   libswresample   0.  6.100 /  0.  6.100
  11. Input #0, image2, from 'testpic.jpg':
  12.   Duration: 00:00:00.04, start: 0.000000, bitrate: N/A
  13.     Stream #0:0: Video: mjpeg, yuvj422p, 753x1024 [SAR 72:72 DAR 753:1024], 25 tbr, 25 tbn, 25 tbc
  14. Output #0, image2, to 'testpic-sized.jpg':
  15.   Metadata:
  16.     encoder         : Lavf53.32.100
  17.     Stream #0:0: Video: mjpeg, yuvj422p, 753x1024, q=2-31, 200 kb/s, 90k tbn, 25 tbc
  18. Stream mapping:
  19.   Stream #0:0 -> #0:0 (mjpeg -> mjpeg)
  20. Press [q] to stop, [?] for help
  21. frame=    1 fps=  0 q=5.9 Lsize=       0kB time=00:00:00.04 bitrate=   0.0kbits/s  
  22. video:77kB audio:0kB global headers:0kB muxing overhead -100.000000%