Pastebin launched a little side project called VERYVIRAL.com, check it out ;-) Want more features on Pastebin? Sign Up, it's FREE!
Guest

Untitled

By: a guest on Oct 21st, 2012  |  syntax: None  |  size: 3.86 KB  |  views: 357  |  expires: Never
download  |  raw  |  embed  |  report abuse  |  print
Text below is selected. Please press Ctrl+C to copy to your clipboard. (⌘+C on Mac)
  1. Killing.Them.Softly.2012.CAM.READNFO.XViD-26k
  2.  
  3.  
  4. http://www.imdb.com/title/tt1764234/
  5.  
  6.  
  7. Plot:
  8.  
  9. Jackie Cogan is a professional enforcer who investigates a heist that went down during a mob-protected poker game.
  10.  
  11.  
  12.  
  13.  
  14. Sources - VIDEO: A Friend .....Thanks
  15.          AUDIO: A Friend .....Thanks
  16.  
  17.  
  18.  
  19.  
  20.  
  21. Format                                   : AVI
  22. Format/Info                              : Audio Video Interleave
  23. File size                                : 1.53 GiB
  24. Duration                                 : 1h 26mn
  25. Overall bit rate                         : 2 540 Kbps
  26. Writing library                          : VirtualDub build 32839/release
  27.  
  28. Video
  29. ID                                       : 0
  30. Format                                   : MPEG-4 Visual
  31. Format profile                           : Advanced Simple@L5
  32. Format settings, BVOP                    : 2
  33. Format settings, QPel                    : No
  34. Format settings, GMC                     : No warppoints
  35. Format settings, Matrix                  : Default (H.263)
  36. Muxing mode                              : Packed bitstream
  37. Codec ID                                 : XVID
  38. Codec ID/Hint                            : XviD
  39. Duration                                 : 1h 26mn
  40. Bit rate                                 : 2 400 Kbps
  41. Width                                    : 720 pixels
  42. Height                                   : 304 pixels
  43. Display aspect ratio                     : 2.35:1
  44. Frame rate                               : 29.970 fps
  45. Color space                              : YUV
  46. Chroma subsampling                       : 4:2:0
  47. Bit depth                                : 8 bits
  48. Scan type                                : Progressive
  49. Compression mode                         : Lossy
  50. Bits/(Pixel*Frame)                       : 0.366
  51. Stream size                              : 1.45 GiB (94%)
  52. Writing library                          : XviD 64
  53.  
  54. Audio
  55. ID                                       : 1
  56. Format                                   : MPEG Audio
  57. Format version                           : Version 1
  58. Format profile                           : Layer 3
  59. Mode                                     : Joint stereo
  60. Mode extension                           : MS Stereo
  61. Codec ID                                 : 55
  62. Codec ID/Hint                            : MP3
  63. Duration                                 : 1h 26mn
  64. Bit rate mode                            : Constant
  65. Bit rate                                 : 128 Kbps
  66. Channel(s)                               : 2 channels
  67. Sampling rate                            : 44.1 KHz
  68. Compression mode                         : Lossy
  69. Stream size                              : 79.1 MiB (5%)
  70. Alignment                                : Split accross interleaves
  71. Interleave, duration                     : 33 ms (1.00 video frame)
  72.  
  73.  
  74.  
  75.  
  76.  
  77. Notes -
  78.  
  79. Source not greatest loads of noise and the movie is dark.. did what we could with it. denoise
  80. smoother a lil bit, color adjustment, and tried to brighten it sum.. it is missign sum minutes.
  81. its bout 11 min short of imdb runtime but figure 4-6 of that is credits so only missign maybe 7 minute
  82. but all in all watchable movie.. it is CAM audio it is decent CAM audio... there is occasional border and
  83. cam movemnet and it got covered up a few times for various reasons...
  84.  
  85. ILLUMiNATi/MATiNE.... You best keep our name out your mouths b4 u bite off way more than u can chew... this is ur warning..
  86. i See u talkin shit in shouts...
  87.  
  88. [/code]
  89.  
  90. Screens:
  91.  
  92.  
  93.  
  94.  
  95.  
  96.  
  97. Greetz:
  98. XtremeEncode|FYA|CM8|RX|VISION|HDSCENE|xTriLL|DTRG|CRYS|REMIXHD|BIDA|RX|REFILL|INSPiRAL|AXED|HOPE|Anonymous|
  99. GooN|NOIR|Blackjesus|Gabroo Punjab Deh|UNiQUE|DQ1|RESiSTANCE|HS|LEGION|StN|BoobyBlue
  100.  
  101. Special thank you to MEGGAFAST for the support!!!
  102.  
  103.  
  104. To all the people who have helped me  you know who you are
  105.  
  106.  
  107.  
  108. Anything to offer email us @: 26k@hushmail.me