Pastebin launched a little side project called VERYVIRAL.com, check it out ;-) Want more features on Pastebin? Sign Up, it's FREE!
Guest

X-Hitchiker-wyild1

By: a guest on Apr 25th, 2010  |  syntax: None  |  size: 2.76 KB  |  views: 97  |  expires: Never
download  |  raw  |  embed  |  report abuse  |  print
Text below is selected. Please press Ctrl+C to copy to your clipboard. (⌘+C on Mac)
  1. mediainfo The.Hitchhikers.Guide.to.the.Galaxy.1080p.Bluray.mkv
  2. General
  3. Complete name                    : The.Hitchhikers.Guide.to.the.Galaxy.1080p.Bluray.mkv
  4. Format                           : Matroska
  5. File size                        : 7.95 GiB
  6. Duration                         : 1h 48mn
  7. Overall bit rate                 : 10.5 Mbps
  8. Encoded date                     : UTC 2008-04-24 23:59:47
  9. Writing application              : mkvmerge v2.2.0 ('Turn It On Again') built on Mar  4 2008 12:58:26
  10. Writing library                  : libebml v0.7.7 + libmatroska v0.8.1
  11.  
  12. Video
  13. ID                               : 1
  14. Format                           : AVC
  15. Format/Info                      : Advanced Video Codec
  16. Format profile                   : High@L5.1
  17. Format settings, CABAC           : Yes
  18. Format settings, ReFrames        : 5 frames
  19. Muxing mode                      : Container profile=Unknown@5.1
  20. Codec ID                         : V_MPEG4/ISO/AVC
  21. Duration                         : 1h 48mn
  22. Bit rate                         : 9 611 Kbps
  23. Nominal bit rate                 : 9 817 Kbps
  24. Width                            : 1 920 pixels
  25. Height                           : 800 pixels
  26. Display aspect ratio             : 2.40:1
  27. Frame rate                       : 23.976 fps
  28. Resolution                       : 24 bits
  29. Colorimetry                      : 4:2:0
  30. Scan type                        : Progressive
  31. Bits/(Pixel*Frame)               : 0.261
  32. Stream size                      : 7.30 GiB (92%)
  33. Title                            : Video
  34. Writing library                  : x264 core 59 r826 138601d
  35. Encoding settings                : cabac=1 / ref=5 / deblock=1:0:0 / analyse=0x3:0x133 / me=umh / subme=7 / brdo=1 / mixed_ref=1 / me_range=16 / chroma_me=1 / trellis=1 / 8x8dct=1 / cqm=0 / deadzone=21,11 / chroma_qp_offset=0 / threads=6 / nr=0 / decimate=1 / mbaff=0 / bframes=3 / b_pyramid=1 / b_adapt=1 / b_bias=0 / direct=1 / wpredb=1 / bime=1 / keyint=250 / keyint_min=25 / scenecut=40(pre) / rc=2pass / bitrate=9817 / ratetol=1.0 / rceq='blurCplx^(1-qComp)' / qcomp=1.00 / qpmin=10 / qpmax=51 / qpstep=4 / cplxblur=20.0 / qblur=0.5 / ip_ratio=1.40 / pb_ratio=1.30 / aq=2:1.00
  36.  
  37. Audio
  38. ID                               : 2
  39. Format                           : AC-3
  40. Format/Info                      : Audio Coding 3
  41. Codec ID                         : A_AC3
  42. Duration                         : 1h 48mn
  43. Bit rate mode                    : Constant
  44. Bit rate                         : 640 Kbps
  45. Channel(s)                       : 6 channels
  46. Channel positions                : Front: L C R, Surround: L R, LFE
  47. Sampling rate                    : 48.0 KHz
  48. Stream size                      : 498 MiB (6%)
  49. Title                            : English (AC3)
  50. Language                         : English