Want more features on Pastebin? Sign Up, it's FREE!
Guest

King Arthur Media Info

By: a guest on Apr 12th, 2010  |  syntax: None  |  size: 3.66 KB  |  views: 187  |  expires: Never
download  |  raw  |  embed  |  report abuse  |  print
Text below is selected. Please press Ctrl+C to copy to your clipboard. (⌘+C on Mac)
  1. General
  2. Complete name                    : /Volumes/backup/videos/movie_rips/1080p/King Arthur.mkv
  3. Format                           : Matroska
  4. File size                        : 28.9 GiB
  5. Duration                         : 2h 21mn
  6. Overall bit rate                 : 29.2 Mbps
  7. Encoded date                     : UTC 2010-03-27 03:34:22
  8. Writing application              : MakeMKV v1.5.2 beta darwin(x86-release)
  9. Writing library                  : libmakemkv v1.5.2 beta (0.7.7/0.8.1) darwin(x86-release)
  10.  
  11. Video
  12. ID                               : 1
  13. Format                           : AVC
  14. Format/Info                      : Advanced Video Codec
  15. Format profile                   : High@L4.1
  16. Format settings, CABAC           : Yes
  17. Format settings, ReFrames        : 2 frames
  18. Muxing mode                      : Container profile=Unknown@4.1
  19. Codec ID                         : V_MPEG4/ISO/AVC
  20. Duration                         : 2h 21mn
  21. Bit rate                         : 23.3 Mbps
  22. Width                            : 1 920 pixels
  23. Height                           : 1 080 pixels
  24. Display aspect ratio             : 16:9
  25. Frame rate                       : 23.976 fps
  26. Resolution                       : 8 bits
  27. Colorimetry                      : 4:2:0
  28. Scan type                        : Progressive
  29. Bits/(Pixel*Frame)               : 0.470
  30. Stream size                      : 23.1 GiB (80%)
  31.  
  32. Audio #1
  33. ID                               : 2
  34. Format                           : AC-3
  35. Format/Info                      : Audio Coding 3
  36. Codec ID                         : A_AC3
  37. Duration                         : 2h 21mn
  38. Bit rate mode                    : Constant
  39. Bit rate                         : 640 Kbps
  40. Channel(s)                       : 6 channels
  41. Channel positions                : Front: L C R, Side: L R, LFE
  42. Sampling rate                    : 48.0 KHz
  43. Stream size                      : 648 MiB (2%)
  44. Title                            : 3/2+1
  45. Language                         : English
  46.  
  47. Audio #2
  48. ID                               : 3
  49. Format                           : PCM
  50. Format settings, Endianness      : Little
  51. Format settings, Sign            : Unsigned
  52. Codec ID                         : 00001000-0000-0100-8000-00AA00389B71
  53. Codec ID/Hint                    : Microsoft
  54. Duration                         : 2h 21mn
  55. Bit rate mode                    : Constant
  56. Bit rate                         : 4 608 Kbps
  57. Channel(s)                       : 6 channels
  58. Channel positions                : Front: L C R, Side: L R, LFE
  59. Sampling rate                    : 48.0 KHz
  60. Resolution                       : 16 bits
  61. Stream size                      : 4.56 GiB (16%)
  62. Title                            : 3/2+1
  63. Language                         : English
  64.  
  65. Text
  66. ID                               : 5
  67. Format                           : PGS
  68. Codec ID                         : S_HDMV/PGS
  69. Codec ID/Info                    : The same subtitle format used on BDs/HD-DVDs
  70. Language                         : English
  71.  
  72. Menu
  73. 00:00:00.000                     : en:Chapter 00
  74. 00:13:21.884                     : en:Chapter 01
  75. 00:21:39.256                     : en:Chapter 02
  76. 00:35:14.779                     : en:Chapter 03
  77. 00:45:03.117                     : en:Chapter 04
  78. 00:55:30.368                     : en:Chapter 05
  79. 01:04:39.458                     : en:Chapter 06
  80. 01:12:11.618                     : en:Chapter 07
  81. 01:23:48.898                     : en:Chapter 08
  82. 01:34:06.223                     : en:Chapter 09
  83. 01:43:32.206                     : en:Chapter 10
  84. 01:54:06.798                     : en:Chapter 11
  85. 02:05:32.024                     : en:Chapter 12
  86. 02:10:33.659                     : en:Chapter 13
clone this paste RAW Paste Data