SHARE
TWEET

Untitled

asiautaf Jan 9th, 2017 72 Never
Not a member of Pastebin yet? Sign Up, it unlocks many cool features!
  1. INFO:
  2. General
  3. Complete name : D:\Downloads\MUSIC-MV\Klips-UHDTV\T-ARA - Tiamo [MV UHD 4K].mp4
  4. Format : MPEG-4
  5. Format profile : Base Media / Version 2
  6. Codec ID : mp42
  7. File size : 3.72 GiB
  8. Duration : 3mn 55s
  9. Overall bit rate mode : Constant
  10. Overall bit rate : 135 Mbps
  11.  
  12. Video
  13. ID : 2
  14. Format : AVC
  15. Format/Info : Advanced Video Codec
  16. Format profile : High@L5.1
  17. Format settings, CABAC : Yes
  18. Format settings, ReFrames : 3 frames
  19. Codec ID : avc1
  20. Codec ID/Info : Advanced Video Coding
  21. Duration : 3mn 55s
  22. Bit rate mode : Constant
  23. Bit rate : 135 Mbps
  24. Width : 4 096 pixels
  25. Height : 2 304 pixels
  26. Display aspect ratio : 16:9
  27. Frame rate mode : Constant
  28. Frame rate : 23.976 fps
  29. Standard : NTSC
  30. Color space : YUV
  31. Chroma subsampling : 4:2:0
  32. Bit depth : 8 bits
  33. Scan type : Progressive
  34. Bits/(Pixel*Frame) : 0.597
  35. Stream size : 3.70 GiB (100%)
  36. Language : English
  37. Color primaries : BT.709
  38. Transfer characteristics : BT.709
  39. Matrix coefficients : BT.709
  40.  
  41. Audio
  42. ID : 1
  43. Format : AAC
  44. Format/Info : Advanced Audio Codec
  45. Format profile : LC
  46. Codec ID : 40
  47. Duration : 3mn 55s
  48. Bit rate mode : Constant
  49. Bit rate : 384 Kbps
  50. Channel(s) : channel0
  51. Channel(s)_Original : 2 channels
  52. Channel positions : Front: L R
  53. Sampling rate : 48.0 KHz
  54. Compression mode : Lossy
  55. Stream size : 10.9 MiB (0%)
  56. Language : English
RAW Paste Data
Top