Guest User

Untitled

a guest
Feb 16th, 2016
197
Never
Not a member of Pastebin yet? Sign Up, it unlocks many cool features!
  1. Format : MPEG-4
  2. Format profile : QuickTime
  3. Codec ID : qt
  4. File size : 4.35 GiB
  5. Duration : 3mn 16s
  6. Overall bit rate mode : Variable
  7. Overall bit rate : 190 Mbps
  8. Encoded date : UTC 2013-10-15 18:29:23
  9. Tagged date : UTC 2013-10-15 18:30:21
  10. Writing library : Apple QuickTime
  11.  
  12. Video
  13. ID : 2
  14. Format : ProRes
  15. Format version : Version 0
  16. Format profile : 422 HQ
  17. Codec ID : apch
  18. Duration : 3mn 16s
  19. Bit rate mode : Variable
  20. Bit rate : 188 Mbps
  21. Width : 1 920 pixels
  22. Height : 1 080 pixels
  23. Display aspect ratio : 16:9
  24. Frame rate mode : Constant
  25. Frame rate : 25.000 fps
  26. Color space : YUV
  27. Chroma subsampling : 4:2:2
  28. Scan type : Progressive
  29. Bits/(Pixel*Frame) : 3.633
  30. Stream size : 4.32 GiB (99%)
  31. Writing library : Apple
  32. Language : English
  33. Encoded date : UTC 2013-10-15 18:24:50
  34. Tagged date : UTC 2013-10-15 18:30:21
  35. Matrix coefficients : BT.709
  36.  
  37. Audio
  38. ID : 1
  39. Format : PCM
  40. Format settings, Endianness : Little
  41. Format settings, Sign : Signed
  42. Codec ID : sowt
  43. Duration : 3mn 16s
  44. Bit rate mode : Constant
  45. Bit rate : 1 536 Kbps
  46. Channel(s) : 2 channels
  47. Channel positions : Front: L R
  48. Sampling rate : 48.0 KHz
  49. Bit depth : 16 bits
  50. Stream size : 36.1 MiB (1%)
  51. Language : English
  52. Encoded date : UTC 2013-10-15 18:24:50
  53. Tagged date : UTC 2013-10-15 18:30:21
RAW Paste Data

Adblocker detected! Please consider disabling it...

We've detected AdBlock Plus or some other adblocking software preventing Pastebin.com from fully loading.

We don't have any obnoxious sound, or popup ads, we actively block these annoying types of ads!

Please add Pastebin.com to your ad blocker whitelist or disable your adblocking software.

×