Guest User

E01

a guest
Jan 18th, 2018
388
Never
Not a member of Pastebin yet? Sign Up, it unlocks many cool features!
  1. General
  2. Unique ID : 198573538364523084465673900615785323361 (0x9563DF53A28458A7B7A7D86885F11B61)
  3. Complete name : [DragsterPS] Violet Evergarden S01E01 [1080p] [Multi-Audio] [Multi-Subs] [E395E758].mkv
  4. Format : Matroska
  5. Format version : Version 4 / Version 2
  6. File size : 775 MiB
  7. Duration : 24 min 13 s
  8. Overall bit rate mode : Variable
  9. Overall bit rate : 4 474 kb/s
  10. Encoded date : UTC 2018-01-11 16:56:46
  11. Writing application : mkvmerge v16.0.0 ('Protest') 32-bit
  12. Writing library : libebml v1.3.5 + libmatroska v1.4.8
  13.  
  14. Video
  15. ID : 1
  16. Format : AVC
  17. Format/Info : Advanced Video Codec
  18. Format profile : Main@L4
  19. Format settings : CABAC / 3 Ref Frames
  20. Format settings, CABAC : Yes
  21. Format settings, RefFrames : 3 frames
  22. Codec ID : V_MPEG4/ISO/AVC
  23. Duration : 24 min 13 s
  24. Bit rate mode : Variable
  25. Bit rate : 3 480 kb/s
  26. Maximum bit rate : 5 220 kb/s
  27. Width : 1 920 pixels
  28. Height : 1 080 pixels
  29. Display aspect ratio : 16:9
  30. Frame rate mode : Constant
  31. Frame rate : 23.976 (24000/1001) FPS
  32. Color space : YUV
  33. Chroma subsampling : 4:2:0
  34. Bit depth : 8 bits
  35. Scan type : Progressive
  36. Bits/(Pixel*Frame) : 0.070
  37. Stream size : 597 MiB (77%)
  38. Writing library : x264 core 148 r2714 2daf636
  39. Encoding settings : cabac=1 / ref=3 / deblock=1:0:0 / analyse=0x1:0x111 / me=umh / subme=10 / psy=1 / psy_rd=1.00:0.00 / mixed_ref=1 / me_range=24 / chroma_me=1 / trellis=2 / 8x8dct=0 / cqm=0 / deadzone=21,11 / fast_pskip=1 / chroma_qp_offset=-2 / threads=8 / lookahead_threads=1 / sliced_threads=0 / nr=0 / decimate=1 / interlaced=0 / bluray_compat=0 / stitchable=1 / constrained_intra=0 / bframes=2 / b_pyramid=0 / b_adapt=2 / b_bias=0 / direct=3 / weightb=1 / open_gop=0 / weightp=2 / keyint=48 / keyint_min=25 / scenecut=0 / intra_refresh=0 / rc_lookahead=48 / rc=2pass / mbtree=1 / bitrate=3480 / ratetol=1.0 / qcomp=0.50 / qpmin=6 / qpmax=51 / qpstep=4 / cplxblur=20.0 / qblur=0.5 / vbv_maxrate=5220 / vbv_bufsize=6960 / nal_hrd=vbr / filler=0 / ip_ratio=1.40 / aq=1:1.00
  40. Default : Yes
  41. Forced : No
  42.  
  43. Audio #1
  44. ID : 2
  45. Format : E-AC-3
  46. Format/Info : Enhanced Audio Coding 3
  47. Codec ID : A_EAC3
  48. Duration : 24 min 13 s
  49. Bit rate mode : Constant
  50. Bit rate : 128 kb/s
  51. Channel(s) : 2 channels
  52. Channel positions : Front: L R
  53. Sampling rate : 48.0 kHz
  54. Frame rate : 187.500 FPS (256 SPF)
  55. Compression mode : Lossy
  56. Stream size : 22.2 MiB (3%)
  57. Title : Castilian
  58. Language : Spanish
  59. Service kind : Complete Main
  60. Default : Yes
  61. Forced : No
  62.  
  63. Audio #2
  64. ID : 3
  65. Format : E-AC-3
  66. Format/Info : Enhanced Audio Coding 3
  67. Codec ID : A_EAC3
  68. Duration : 24 min 13 s
  69. Bit rate mode : Constant
  70. Bit rate : 128 kb/s
  71. Channel(s) : 2 channels
  72. Channel positions : Front: L R
  73. Sampling rate : 48.0 kHz
  74. Frame rate : 187.500 FPS (256 SPF)
  75. Compression mode : Lossy
  76. Stream size : 22.2 MiB (3%)
  77. Title : Spanish
  78. Language : Spanish
  79. Service kind : Complete Main
  80. Default : No
  81. Forced : No
  82.  
  83. Audio #3
  84. ID : 4
  85. Format : E-AC-3
  86. Format/Info : Enhanced Audio Coding 3
  87. Codec ID : A_EAC3
  88. Duration : 24 min 13 s
  89. Bit rate mode : Constant
  90. Bit rate : 128 kb/s
  91. Channel(s) : 2 channels
  92. Channel positions : Front: L R
  93. Sampling rate : 48.0 kHz
  94. Frame rate : 187.500 FPS (256 SPF)
  95. Compression mode : Lossy
  96. Stream size : 22.2 MiB (3%)
  97. Title : English
  98. Language : English
  99. Service kind : Complete Main
  100. Default : No
  101. Forced : No
  102.  
  103. Audio #4
  104. ID : 5
  105. Format : E-AC-3
  106. Format/Info : Enhanced Audio Coding 3
  107. Codec ID : A_EAC3
  108. Duration : 24 min 13 s
  109. Bit rate mode : Constant
  110. Bit rate : 128 kb/s
  111. Channel(s) : 2 channels
  112. Channel positions : Front: L R
  113. Sampling rate : 48.0 kHz
  114. Frame rate : 187.500 FPS (256 SPF)
  115. Compression mode : Lossy
  116. Stream size : 22.2 MiB (3%)
  117. Title : French
  118. Language : French
  119. Service kind : Complete Main
  120. Default : No
  121. Forced : No
  122.  
  123. Audio #5
  124. ID : 6
  125. Format : E-AC-3
  126. Format/Info : Enhanced Audio Coding 3
  127. Codec ID : A_EAC3
  128. Duration : 24 min 13 s
  129. Bit rate mode : Constant
  130. Bit rate : 128 kb/s
  131. Channel(s) : 2 channels
  132. Channel positions : Front: L R
  133. Sampling rate : 48.0 kHz
  134. Frame rate : 187.500 FPS (256 SPF)
  135. Compression mode : Lossy
  136. Stream size : 22.2 MiB (3%)
  137. Title : Deutsch
  138. Language : German
  139. Service kind : Complete Main
  140. Default : No
  141. Forced : No
  142.  
  143. Audio #6
  144. ID : 7
  145. Format : E-AC-3
  146. Format/Info : Enhanced Audio Coding 3
  147. Codec ID : A_EAC3
  148. Duration : 24 min 13 s
  149. Bit rate mode : Constant
  150. Bit rate : 128 kb/s
  151. Channel(s) : 2 channels
  152. Channel positions : Front: L R
  153. Sampling rate : 48.0 kHz
  154. Frame rate : 187.500 FPS (256 SPF)
  155. Compression mode : Lossy
  156. Stream size : 22.2 MiB (3%)
  157. Title : Italian
  158. Language : Italian
  159. Service kind : Complete Main
  160. Default : No
  161. Forced : No
  162.  
  163. Audio #7
  164. ID : 8
  165. Format : E-AC-3
  166. Format/Info : Enhanced Audio Coding 3
  167. Codec ID : A_EAC3
  168. Duration : 24 min 13 s
  169. Bit rate mode : Constant
  170. Bit rate : 128 kb/s
  171. Channel(s) : 2 channels
  172. Channel positions : Front: L R
  173. Sampling rate : 48.0 kHz
  174. Frame rate : 187.500 FPS (256 SPF)
  175. Compression mode : Lossy
  176. Stream size : 22.2 MiB (3%)
  177. Title : Brazilian Portuguese
  178. Language : Portuguese
  179. Service kind : Complete Main
  180. Default : No
  181. Forced : No
  182.  
  183. Audio #8
  184. ID : 9
  185. Format : E-AC-3
  186. Format/Info : Enhanced Audio Coding 3
  187. Codec ID : A_EAC3
  188. Duration : 24 min 13 s
  189. Bit rate mode : Constant
  190. Bit rate : 128 kb/s
  191. Channel(s) : 2 channels
  192. Channel positions : Front: L R
  193. Sampling rate : 48.0 kHz
  194. Frame rate : 187.500 FPS (256 SPF)
  195. Compression mode : Lossy
  196. Stream size : 22.2 MiB (3%)
  197. Title : Japanese
  198. Language : Japanese
  199. Service kind : Complete Main
  200. Default : No
  201. Forced : No
  202.  
  203. Text #1
  204. ID : 10
  205. Format : UTF-8
  206. Codec ID : S_TEXT/UTF8
  207. Codec ID/Info : UTF-8 Plain Text
  208. Duration : 23 min 50 s
  209. Bit rate : 0 b/s
  210. Count of elements : 4
  211. Stream size : 159 Bytes (0%)
  212. Title : Castilian [Forced]
  213. Language : Spanish
  214. Default : Yes
  215. Forced : Yes
  216.  
  217. Text #2
  218. ID : 11
  219. Format : UTF-8
  220. Codec ID : S_TEXT/UTF8
  221. Codec ID/Info : UTF-8 Plain Text
  222. Duration : 23 min 50 s
  223. Bit rate : 54 b/s
  224. Count of elements : 328
  225. Stream size : 9.50 KiB (0%)
  226. Title : Castilian [Full]
  227. Language : Spanish
  228. Default : No
  229. Forced : No
  230.  
  231. Text #3
  232. ID : 12
  233. Format : UTF-8
  234. Codec ID : S_TEXT/UTF8
  235. Codec ID/Info : UTF-8 Plain Text
  236. Duration : 23 min 46 s
  237. Bit rate : 0 b/s
  238. Count of elements : 4
  239. Stream size : 142 Bytes (0%)
  240. Title : Spanish [Forced]
  241. Language : Spanish
  242. Default : No
  243. Forced : Yes
  244.  
  245. Text #4
  246. ID : 13
  247. Format : UTF-8
  248. Codec ID : S_TEXT/UTF8
  249. Codec ID/Info : UTF-8 Plain Text
  250. Duration : 23 min 46 s
  251. Bit rate : 55 b/s
  252. Count of elements : 325
  253. Stream size : 9.58 KiB (0%)
  254. Title : Spanish [Full]
  255. Language : Spanish
  256. Default : No
  257. Forced : No
  258.  
  259. Text #5
  260. ID : 14
  261. Format : UTF-8
  262. Codec ID : S_TEXT/UTF8
  263. Codec ID/Info : UTF-8 Plain Text
  264. Duration : 21 min 8 s
  265. Bit rate : 1 b/s
  266. Count of elements : 4
  267. Stream size : 165 Bytes (0%)
  268. Title : English [Forced]
  269. Language : English
  270. Default : No
  271. Forced : Yes
  272.  
  273. Text #6
  274. ID : 15
  275. Format : UTF-8
  276. Codec ID : S_TEXT/UTF8
  277. Codec ID/Info : UTF-8 Plain Text
  278. Duration : 23 min 24 s
  279. Bit rate : 56 b/s
  280. Count of elements : 328
  281. Stream size : 9.67 KiB (0%)
  282. Title : English [Full]
  283. Language : English
  284. Default : No
  285. Forced : No
  286.  
  287. Text #7
  288. ID : 16
  289. Format : UTF-8
  290. Codec ID : S_TEXT/UTF8
  291. Codec ID/Info : UTF-8 Plain Text
  292. Duration : 23 min 46 s
  293. Bit rate : 1 b/s
  294. Count of elements : 5
  295. Stream size : 190 Bytes (0%)
  296. Title : French [Forced]
  297. Language : French
  298. Default : No
  299. Forced : Yes
  300.  
  301. Text #8
  302. ID : 17
  303. Format : UTF-8
  304. Codec ID : S_TEXT/UTF8
  305. Codec ID/Info : UTF-8 Plain Text
  306. Duration : 23 min 46 s
  307. Bit rate : 52 b/s
  308. Count of elements : 328
  309. Stream size : 9.07 KiB (0%)
  310. Title : French [Full]
  311. Language : French
  312. Default : No
  313. Forced : No
  314.  
  315. Text #9
  316. ID : 18
  317. Format : UTF-8
  318. Codec ID : S_TEXT/UTF8
  319. Codec ID/Info : UTF-8 Plain Text
  320. Duration : 23 min 50 s
  321. Bit rate : 1 b/s
  322. Count of elements : 5
  323. Stream size : 193 Bytes (0%)
  324. Title : Deutsch [Forced]
  325. Language : German
  326. Default : No
  327. Forced : Yes
  328.  
  329. Text #10
  330. ID : 19
  331. Format : UTF-8
  332. Codec ID : S_TEXT/UTF8
  333. Codec ID/Info : UTF-8 Plain Text
  334. Duration : 23 min 50 s
  335. Bit rate : 52 b/s
  336. Count of elements : 324
  337. Stream size : 9.10 KiB (0%)
  338. Title : Deutsch [Full]
  339. Language : German
  340. Default : No
  341. Forced : No
  342.  
  343. Text #11
  344. ID : 20
  345. Format : UTF-8
  346. Codec ID : S_TEXT/UTF8
  347. Codec ID/Info : UTF-8 Plain Text
  348. Duration : 23 min 50 s
  349. Bit rate : 0 b/s
  350. Count of elements : 4
  351. Stream size : 155 Bytes (0%)
  352. Title : Italian [Forced]
  353. Language : Italian
  354. Default : No
  355. Forced : Yes
  356.  
  357. Text #12
  358. ID : 21
  359. Format : UTF-8
  360. Codec ID : S_TEXT/UTF8
  361. Codec ID/Info : UTF-8 Plain Text
  362. Duration : 23 min 50 s
  363. Bit rate : 52 b/s
  364. Count of elements : 316
  365. Stream size : 9.19 KiB (0%)
  366. Title : Italian [Full]
  367. Language : Italian
  368. Default : No
  369. Forced : No
  370.  
  371. Text #13
  372. ID : 22
  373. Format : UTF-8
  374. Codec ID : S_TEXT/UTF8
  375. Codec ID/Info : UTF-8 Plain Text
  376. Duration : 23 min 50 s
  377. Bit rate : 52 b/s
  378. Count of elements : 326
  379. Stream size : 9.15 KiB (0%)
  380. Title : Portuguese [Full]
  381. Language : Portuguese
  382. Default : No
  383. Forced : No
  384.  
  385. Text #14
  386. ID : 23
  387. Format : UTF-8
  388. Codec ID : S_TEXT/UTF8
  389. Codec ID/Info : UTF-8 Plain Text
  390. Duration : 23 min 51 s
  391. Bit rate : 0 b/s
  392. Count of elements : 4
  393. Stream size : 126 Bytes (0%)
  394. Title : Brazilian Portuguese [Forced]
  395. Language : Portuguese
  396. Default : No
  397. Forced : Yes
  398.  
  399. Text #15
  400. ID : 24
  401. Format : UTF-8
  402. Codec ID : S_TEXT/UTF8
  403. Codec ID/Info : UTF-8 Plain Text
  404. Duration : 23 min 50 s
  405. Bit rate : 54 b/s
  406. Count of elements : 308
  407. Stream size : 9.46 KiB (0%)
  408. Title : Brazilian Portuguese [Full]
  409. Language : Portuguese
  410. Default : No
  411. Forced : No
  412.  
  413. Text #16
  414. ID : 25
  415. Format : UTF-8
  416. Codec ID : S_TEXT/UTF8
  417. Codec ID/Info : UTF-8 Plain Text
  418. Duration : 23 min 50 s
  419. Bit rate : 50 b/s
  420. Count of elements : 329
  421. Stream size : 8.76 KiB (0%)
  422. Title : Polish [Full]
  423. Language : Polish
  424. Default : No
  425. Forced : No
  426.  
  427. Text #17
  428. ID : 26
  429. Format : UTF-8
  430. Codec ID : S_TEXT/UTF8
  431. Codec ID/Info : UTF-8 Plain Text
  432. Duration : 23 min 50 s
  433. Bit rate : 52 b/s
  434. Count of elements : 320
  435. Stream size : 9.14 KiB (0%)
  436. Title : Turkish [Full]
  437. Language : Turkish
  438. Default : No
  439. Forced : No
  440.  
  441. Text #18
  442. ID : 27
  443. Format : UTF-8
  444. Codec ID : S_TEXT/UTF8
  445. Codec ID/Info : UTF-8 Plain Text
  446. Duration : 23 min 50 s
  447. Bit rate : 49 b/s
  448. Count of elements : 312
  449. Stream size : 8.64 KiB (0%)
  450. Title : Swedish [Full]
  451. Language : Swedish
  452. Default : No
  453. Forced : No
  454.  
  455. Text #19
  456. ID : 28
  457. Format : UTF-8
  458. Codec ID : S_TEXT/UTF8
  459. Codec ID/Info : UTF-8 Plain Text
  460. Duration : 23 min 50 s
  461. Bit rate : 52 b/s
  462. Count of elements : 282
  463. Stream size : 9.19 KiB (0%)
  464. Title : Danish [Full]
  465. Language : Danish
  466. Default : No
  467. Forced : No
  468.  
  469. Text #20
  470. ID : 29
  471. Format : UTF-8
  472. Codec ID : S_TEXT/UTF8
  473. Codec ID/Info : UTF-8 Plain Text
  474. Duration : 23 min 50 s
  475. Bit rate : 50 b/s
  476. Count of elements : 277
  477. Stream size : 8.85 KiB (0%)
  478. Title : Finnish [Full]
  479. Language : Finnish
  480. Default : No
  481. Forced : No
  482.  
  483. Text #21
  484. ID : 30
  485. Format : UTF-8
  486. Codec ID : S_TEXT/UTF8
  487. Codec ID/Info : UTF-8 Plain Text
  488. Duration : 23 min 50 s
  489. Bit rate : 43 b/s
  490. Count of elements : 316
  491. Stream size : 7.64 KiB (0%)
  492. Title : Dutch [Full]
  493. Language : Dutch
  494. Default : No
  495. Forced : No
  496.  
  497. Text #22
  498. ID : 31
  499. Format : UTF-8
  500. Codec ID : S_TEXT/UTF8
  501. Codec ID/Info : UTF-8 Plain Text
  502. Duration : 23 min 50 s
  503. Bit rate : 48 b/s
  504. Count of elements : 323
  505. Stream size : 8.50 KiB (0%)
  506. Title : Norwegian [Full]
  507. Language : Norwegian
  508. Default : No
  509. Forced : No
  510.  
  511. Text #23
  512. ID : 32
  513. Format : UTF-8
  514. Codec ID : S_TEXT/UTF8
  515. Codec ID/Info : UTF-8 Plain Text
  516. Duration : 23 min 50 s
  517. Bit rate : 92 b/s
  518. Count of elements : 325
  519. Stream size : 16.1 KiB (0%)
  520. Title : Greek [Full]
  521. Language : Greek
  522. Default : No
  523. Forced : No
  524.  
  525. Text #24
  526. ID : 33
  527. Format : UTF-8
  528. Codec ID : S_TEXT/UTF8
  529. Codec ID/Info : UTF-8 Plain Text
  530. Duration : 23 min 48 s
  531. Bit rate : 84 b/s
  532. Count of elements : 323
  533. Stream size : 14.7 KiB (0%)
  534. Title : Hebrew [Full]
  535. Language : Hebrew
  536. Default : No
  537. Forced : No
  538.  
  539. Text #25
  540. ID : 34
  541. Format : UTF-8
  542. Codec ID : S_TEXT/UTF8
  543. Codec ID/Info : UTF-8 Plain Text
  544. Duration : 23 min 50 s
  545. Bit rate : 91 b/s
  546. Count of elements : 328
  547. Stream size : 15.9 KiB (0%)
  548. Title : Arabic [Full]
  549. Language : Arabic
  550. Default : No
  551. Forced : No
  552.  
  553. Text #26
  554. ID : 35
  555. Format : UTF-8
  556. Codec ID : S_TEXT/UTF8
  557. Codec ID/Info : UTF-8 Plain Text
  558. Duration : 23 min 50 s
  559. Bit rate : 53 b/s
  560. Count of elements : 324
  561. Stream size : 9.31 KiB (0%)
  562. Title : Romanian [Full]
  563. Language : Romanian
  564. Default : No
  565. Forced : No
  566.  
  567. Text #27
  568. ID : 36
  569. Format : UTF-8
  570. Codec ID : S_TEXT/UTF8
  571. Codec ID/Info : UTF-8 Plain Text
  572. Duration : 23 min 50 s
  573. Bit rate : 130 b/s
  574. Count of elements : 328
  575. Stream size : 22.8 KiB (0%)
  576. Title : Thai [Full]
  577. Language : Thai
  578. Default : No
  579. Forced : No
  580.  
  581. Text #28
  582. ID : 37
  583. Format : UTF-8
  584. Codec ID : S_TEXT/UTF8
  585. Codec ID/Info : UTF-8 Plain Text
  586. Duration : 23 min 50 s
  587. Bit rate : 55 b/s
  588. Count of elements : 328
  589. Stream size : 9.73 KiB (0%)
  590. Title : Korean [Full]
  591. Language : Korean
  592. Default : No
  593. Forced : No
  594.  
  595. Text #29
  596. ID : 38
  597. Format : UTF-8
  598. Codec ID : S_TEXT/UTF8
  599. Codec ID/Info : UTF-8 Plain Text
  600. Duration : 23 min 46 s
  601. Bit rate : 45 b/s
  602. Count of elements : 329
  603. Stream size : 7.99 KiB (0%)
  604. Title : Chinese (Simplified) [Full]
  605. Language : Chinese
  606. Default : No
  607. Forced : No
  608.  
  609. Text #30
  610. ID : 39
  611. Format : UTF-8
  612. Codec ID : S_TEXT/UTF8
  613. Codec ID/Info : UTF-8 Plain Text
  614. Duration : 23 min 50 s
  615. Bit rate : 46 b/s
  616. Count of elements : 329
  617. Stream size : 8.11 KiB (0%)
  618. Title : Chinese (Traditional) [Full]
  619. Language : Chinese
  620. Default : No
  621. Forced : No
  622.  
  623. Text #31
  624. ID : 40
  625. Format : UTF-8
  626. Codec ID : S_TEXT/UTF8
  627. Codec ID/Info : UTF-8 Plain Text
  628. Duration : 23 min 38 s
  629. Bit rate : 84 b/s
  630. Count of elements : 401
  631. Stream size : 14.6 KiB (0%)
  632. Title : Japanese [SDH]
  633. Language : Japanese
  634. Default : No
  635. Forced : No
RAW Paste Data