SHARE
TWEET

Splash.1984.1080p.BluRay.REMUX.AVC.DTS-HD.MA.5.1-EPSiLON

a guest Jun 16th, 2019 32 Never
Not a member of Pastebin yet? Sign Up, it unlocks many cool features!
  1. General
  2. Complete name                            : Splash.1984.1080p.BluRay.REMUX.AVC.DTS-HD.MA.5.1-EPSiLON.mkv
  3. Format                                   : Matroska
  4. Format version                           : Version 4
  5. File size                                : 23.1 GiB
  6. Duration                                 : 1 h 49 min
  7. Overall bit rate mode                    : Variable
  8. Overall bit rate                         : 30.1 Mb/s
  9. Encoded date                             : UTC 2018-01-26 08:43:59
  10. Writing application                      : mkvmerge v20.0.0 ('I Am The Sun') 64-bit
  11. Writing library                          : libebml v1.3.5 + libmatroska v1.4.8
  12.  
  13. Video
  14. ID                                       : 1
  15. Format                                   : AVC
  16. Format/Info                              : Advanced Video Codec
  17. Format profile                           : High@L4.1
  18. Format settings                          : CABAC / 4 Ref Frames
  19. Format settings, CABAC                   : Yes
  20. Format settings, Reference frames        : 4 frames
  21. Codec ID                                 : V_MPEG4/ISO/AVC
  22. Duration                                 : 1 h 49 min
  23. Bit rate mode                            : Variable
  24. Bit rate                                 : 25.9 Mb/s
  25. Maximum bit rate                         : 34.0 Mb/s
  26. Width                                    : 1 920 pixels
  27. Height                                   : 1 080 pixels
  28. Display aspect ratio                     : 16:9
  29. Frame rate mode                          : Constant
  30. Frame rate                               : 23.976 (24000/1001) FPS
  31. Color space                              : YUV
  32. Chroma subsampling                       : 4:2:0
  33. Bit depth                                : 8 bits
  34. Scan type                                : Progressive
  35. Bits/(Pixel*Frame)                       : 0.521
  36. Stream size                              : 19.9 GiB (86%)
  37. Title                                    : MPEG-4 AVC Video / 25990 kbps / 1080p / 23.976 fps / 16:9 / High Profile 4.1
  38. Language                                 : English
  39. Default                                  : Yes
  40. Forced                                   : No
  41.  
  42. Audio #1
  43. ID                                       : 2
  44. Format                                   : DTS XLL
  45. Format/Info                              : Digital Theater Systems
  46. Commercial name                          : DTS-HD Master Audio
  47. Codec ID                                 : A_DTS
  48. Duration                                 : 1 h 49 min
  49. Bit rate mode                            : Variable
  50. Bit rate                                 : 3 549 kb/s
  51. Channel(s)                               : 6 channels
  52. Channel layout                           : C L R Ls Rs LFE
  53. Sampling rate                            : 48.0 kHz
  54. Frame rate                               : 93.750 FPS (512 SPF)
  55. Bit depth                                : 24 bits
  56. Compression mode                         : Lossless
  57. Stream size                              : 2.72 GiB (12%)
  58. Title                                    : DTS-HD Master Audio / 5.1 / 48 kHz / 3549 kbps / 24-bit
  59. Language                                 : English
  60. Default                                  : Yes
  61. Forced                                   : No
  62.  
  63. Audio #2
  64. ID                                       : 3
  65. Format                                   : AC-3
  66. Format/Info                              : Audio Coding 3
  67. Commercial name                          : Dolby Digital
  68. Codec ID                                 : A_AC3
  69. Duration                                 : 1 h 49 min
  70. Bit rate mode                            : Constant
  71. Bit rate                                 : 320 kb/s
  72. Channel(s)                               : 2 channels
  73. Channel layout                           : L R
  74. Sampling rate                            : 48.0 kHz
  75. Frame rate                               : 31.250 FPS (1536 SPF)
  76. Bit depth                                : 16 bits
  77. Compression mode                         : Lossy
  78. Stream size                              : 251 MiB (1%)
  79. Title                                    : Commentary by director Ron Howard, producer Brian Glazer, and co-writers Lowell Ganz and Babaloo Mandel
  80. Language                                 : English
  81. Service kind                             : Complete Main
  82. Default                                  : No
  83. Forced                                   : No
  84.  
  85. Text #1
  86. ID                                       : 4
  87. Format                                   : PGS
  88. Codec ID                                 : S_HDMV/PGS
  89. Codec ID/Info                            : Picture based subtitle format used on BDs/HD-DVDs
  90. Duration                                 : 1 h 48 min
  91. Bit rate                                 : 33.5 kb/s
  92. Count of elements                        : 2848
  93. Stream size                              : 26.1 MiB (0%)
  94. Title                                    : SDH
  95. Language                                 : English
  96. Default                                  : No
  97. Forced                                   : No
  98.  
  99. Text #2
  100. ID                                       : 5
  101. Format                                   : PGS
  102. Codec ID                                 : S_HDMV/PGS
  103. Codec ID/Info                            : Picture based subtitle format used on BDs/HD-DVDs
  104. Duration                                 : 1 h 41 min
  105. Bit rate                                 : 26.7 kb/s
  106. Count of elements                        : 2080
  107. Stream size                              : 19.3 MiB (0%)
  108. Title                                    : Canadian
  109. Language                                 : French
  110. Default                                  : No
  111. Forced                                   : No
  112.  
  113. Text #3
  114. ID                                       : 6
  115. Format                                   : PGS
  116. Codec ID                                 : S_HDMV/PGS
  117. Codec ID/Info                            : Picture based subtitle format used on BDs/HD-DVDs
  118. Duration                                 : 1 h 43 min
  119. Bit rate                                 : 30.8 kb/s
  120. Count of elements                        : 2262
  121. Stream size                              : 22.8 MiB (0%)
  122. Title                                    : Brazilian
  123. Language                                 : Portuguese
  124. Default                                  : No
  125. Forced                                   : No
  126.  
  127. Text #4
  128. ID                                       : 7
  129. Format                                   : PGS
  130. Codec ID                                 : S_HDMV/PGS
  131. Codec ID/Info                            : Picture based subtitle format used on BDs/HD-DVDs
  132. Duration                                 : 1 h 41 min
  133. Bit rate                                 : 34.4 kb/s
  134. Count of elements                        : 2326
  135. Stream size                              : 25.1 MiB (0%)
  136. Title                                    : Latin American
  137. Language                                 : Spanish
  138. Default                                  : No
  139. Forced                                   : No
  140.  
  141. Text #5
  142. ID                                       : 8
  143. Format                                   : PGS
  144. Codec ID                                 : S_HDMV/PGS
  145. Codec ID/Info                            : Picture based subtitle format used on BDs/HD-DVDs
  146. Duration                                 : 1 h 49 min
  147. Bit rate                                 : 75.9 kb/s
  148. Count of elements                        : 4372
  149. Stream size                              : 59.5 MiB (0%)
  150. Title                                    : Commentary by director Ron Howard producer Brian Glazer, and co-writers Lowell Ganz and Babaloo Mandel
  151. Language                                 : English
  152. Default                                  : No
  153. Forced                                   : No
  154.  
  155. Text #6
  156. ID                                       : 9
  157. Format                                   : PGS
  158. Codec ID                                 : S_HDMV/PGS
  159. Codec ID/Info                            : Picture based subtitle format used on BDs/HD-DVDs
  160. Duration                                 : 1 h 49 min
  161. Bit rate                                 : 59.5 kb/s
  162. Count of elements                        : 4090
  163. Stream size                              : 46.6 MiB (0%)
  164. Title                                    : Commentary by director Ron Howard producer Brian Glazer, and co-writers Lowell Ganz and Babaloo Mandel
  165. Language                                 : French
  166. Default                                  : No
  167. Forced                                   : No
  168.  
  169. Text #7
  170. ID                                       : 10
  171. Format                                   : PGS
  172. Codec ID                                 : S_HDMV/PGS
  173. Codec ID/Info                            : Picture based subtitle format used on BDs/HD-DVDs
  174. Duration                                 : 1 h 49 min
  175. Bit rate                                 : 49.7 kb/s
  176. Count of elements                        : 3154
  177. Stream size                              : 38.9 MiB (0%)
  178. Title                                    : Commentary by director Ron Howard producer Brian Glazer, and co-writers Lowell Ganz and Babaloo Mandel
  179. Language                                 : Portuguese
  180. Default                                  : No
  181. Forced                                   : No
  182.  
  183. Text #8
  184. ID                                       : 11
  185. Format                                   : PGS
  186. Codec ID                                 : S_HDMV/PGS
  187. Codec ID/Info                            : Picture based subtitle format used on BDs/HD-DVDs
  188. Duration                                 : 1 h 49 min
  189. Bit rate                                 : 57.2 kb/s
  190. Count of elements                        : 3312
  191. Stream size                              : 44.8 MiB (0%)
  192. Title                                    : Commentary by director Ron Howard producer Brian Glazer, and co-writers Lowell Ganz and Babaloo Mandel
  193. Language                                 : Spanish
  194. Default                                  : No
  195. Forced                                   : No
  196.  
  197. Menu
  198. 00:00:00.000                             : en:Opening Credits
  199. 00:01:53.863                             : en:Boy Overboard
  200. 00:04:28.518                             : en:Grownup Problems
  201. 00:13:31.560                             : en:Desolate Drunk
  202. 00:17:08.861                             : en:Mr. Fat Jack's Boat
  203. 00:23:12.474                             : en:Mysterious Encounter
  204. 00:31:36.269                             : en:At Bloomingdale's
  205. 00:37:01.928                             : en:Home Away From Home
  206. 00:46:57.064                             : en:A Distant Memory
  207. 00:54:22.300                             : en:Allen In Love
  208. 00:56:41.022                             : en:A Big Present
  209. 01:00:53.149                             : en:Romantic Seafood Dinner
  210. 01:04:44.255                             : en:Lover's Quarrel
  211. 01:10:37.316                             : en:All Wet
  212. 01:18:22.739                             : en:A Lucky Guy
  213. 01:22:55.595                             : en:Covert Operation
  214. 01:31:21.684                             : en:Reunited
  215. 01:36:57.770                             : en:In Hot Pursuit
  216. 01:41:47.935                             : en:A Tough Choice
  217. 01:45:08.635                             : en:End Credits
RAW Paste Data
We use cookies for various purposes including analytics. By continuing to use Pastebin, you agree to our use of cookies as described in the Cookies Policy. OK, I Understand
 
Top