Guest User

Untitled

a guest
Oct 15th, 2017
209
Never
Not a member of Pastebin yet? Sign Up, it unlocks many cool features!
  1. General
  2. Unique ID : 250089544288829400483660435000524992398 (0xBC257E84B435728BA60C002C4C32EF8E)
  3. Complete name : F:\VideoSSD\Mad.Max.Fury.Road.2015.Lic.BDREMUX.2160p.4K.UltraHD.HEVC.HDR.ExKinoRay.mkv
  4. Format : Matroska
  5. Format version : Version 4 / Version 2
  6. File size : 42.6 GiB
  7. Duration : 2 h 0 min
  8. Overall bit rate mode : Variable
  9. Overall bit rate : 50.7 Mb/s
  10. Encoded date : UTC 2017-10-15 12:07:06
  11. Writing application : mkvmerge v16.0.0 ('Protest') 64-bit
  12. Writing library : libebml v1.3.5 + libmatroska v1.4.8
  13.  
  14. Video
  15. ID : 1
  16. Format : HEVC
  17. Format/Info : High Efficiency Video Coding
  18. Format profile : Main 10@L5.1@High
  19. Codec ID : V_MPEGH/ISO/HEVC
  20. Duration : 2 h 0 min
  21. Bit rate : 44.1 Mb/s
  22. Width : 3 840 pixels
  23. Height : 2 160 pixels
  24. Display aspect ratio : 16:9
  25. Frame rate mode : Constant
  26. Frame rate : 23.976 (24000/1001) FPS
  27. Color space : YUV
  28. Chroma subsampling : 4:2:0 (Type 2)
  29. Bit depth : 10 bits
  30. Bits/(Pixel*Frame) : 0.222
  31. Stream size : 37.1 GiB (87%)
  32. Language : English
  33. Default : Yes
  34. Forced : No
  35. Color range : Limited
  36. Color primaries : BT.2020
  37. Transfer characteristics : PQ
  38. Matrix coefficients : BT.2020 non-constant
  39. Mastering display color pri : R: x=0.680000 y=0.320000, G: x=0.265000 y=0.690000, B: x=0.150000 y=0.060000, White point: x=0.312700 y=0.329000
  40. Mastering display luminance : min: 0.0050 cd/m2, max: 4000.0000 cd/m2
  41. Maximum Content Light Level : 9918 cd/m2
  42. Maximum Frame-Average Light : 3241 cd/m2
  43.  
  44. Audio #1
  45. ID : 2
  46. Format : AC-3
  47. Format/Info : Audio Coding 3
  48. Format settings, Endianness : Big
  49. Codec ID : A_AC3
  50. Duration : 2 h 0 min
  51. Bit rate mode : Constant
  52. Bit rate : 448 kb/s
  53. Channel(s) : 6 channels
  54. Channel positions : Front: L C R, Side: L R, LFE
  55. Sampling rate : 48.0 kHz
  56. Frame rate : 31.250 FPS (1536 SPF)
  57. Bit depth : 16 bits
  58. Compression mode : Lossy
  59. Stream size : 386 MiB (1%)
  60. Title : Dub [License]
  61. Language : Russian
  62. Service kind : Complete Main
  63. Default : Yes
  64. Forced : No
  65.  
  66. Audio #2
  67. ID : 3
  68. Format : TrueHD
  69. Format profile : TrueHD+Atmos / TrueHD
  70. Codec ID : A_TRUEHD
  71. Duration : 2 h 0 min
  72. Bit rate mode : Variable
  73. Bit rate : 5 693 kb/s
  74. Maximum bit rate : 8 412 kb/s
  75. Channel(s) : Object Based / 8 channels
  76. Channel positions : Object Based / Front: L C R, Side: L R, Back: L R, LFE
  77. Sampling rate : / 48.0 kHz
  78. Frame rate : 1 200.000 FPS (40 SPF)
  79. Compression mode : Lossless
  80. Stream size : 4.79 GiB (11%)
  81. Title : Original
  82. Language : English
  83. Default : No
  84. Forced : No
  85.  
  86. Audio #3
  87. ID : 4
  88. Format : AC-3
  89. Format/Info : Audio Coding 3
  90. Format settings, Endianness : Big
  91. Codec ID : A_AC3
  92. Duration : 2 h 0 min
  93. Bit rate mode : Constant
  94. Bit rate : 384 kb/s
  95. Channel(s) : 6 channels
  96. Channel positions : Front: L C R, Side: L R, LFE
  97. Sampling rate : 48.0 kHz
  98. Frame rate : 31.250 FPS (1536 SPF)
  99. Bit depth : 16 bits
  100. Compression mode : Lossy
  101. Stream size : 331 MiB (1%)
  102. Language : English
  103. Service kind : Complete Main
  104. Default : No
  105. Forced : No
  106.  
  107. Text #1
  108. ID : 5
  109. Format : UTF-8
  110. Codec ID : S_TEXT/UTF8
  111. Codec ID/Info : UTF-8 Plain Text
  112. Duration : 1 h 49 min
  113. Bit rate : 0 b/s
  114. Count of elements : 9
  115. Stream size : 468 Bytes (0%)
  116. Title : Forced
  117. Language : Russian
  118. Default : Yes
  119. Forced : No
  120.  
  121. Text #2
  122. ID : 6
  123. Format : UTF-8
  124. Codec ID : S_TEXT/UTF8
  125. Codec ID/Info : UTF-8 Plain Text
  126. Duration : 1 h 53 min
  127. Bit rate : 39 b/s
  128. Count of elements : 873
  129. Stream size : 33.0 KiB (0%)
  130. Title : Full
  131. Language : Russian
  132. Default : No
  133. Forced : No
  134.  
  135. Text #3
  136. ID : 7
  137. Format : UTF-8
  138. Codec ID : S_TEXT/UTF8
  139. Codec ID/Info : UTF-8 Plain Text
  140. Duration : 1 h 51 min
  141. Bit rate : 24 b/s
  142. Count of elements : 906
  143. Stream size : 19.7 KiB (0%)
  144. Title : Full
  145. Language : English
  146. Default : No
  147. Forced : No
  148.  
  149. Menu
  150. 00:00:00.000 : en:Chapter 01
  151. 00:10:42.475 : en:Chapter 02
  152. 00:19:06.435 : en:Chapter 03
  153. 00:30:12.309 : en:Chapter 04
  154. 00:42:55.613 : en:Chapter 05
  155. 00:49:33.344 : en:Chapter 06
  156. 00:59:55.173 : en:Chapter 07
  157. 01:13:02.542 : en:Chapter 08
  158. 01:22:08.921 : en:Chapter 09
  159. 01:30:02.729 : en:Chapter 10
  160. 01:40:39.867 : en:Chapter 11
  161. 01:49:12.546 : en:Chapter 12
  162. 01:53:06.279 : en:Chapter 13
  163. 02:00:23.131 : en:Chapter 14
RAW Paste Data